Леди из кордебалета / Ladies of the Chorus (Фил Карлсон / Phil Karlson) [1948, США, мюзикл, мелодрама, DVDRip] VO (binjak) + Sub Rus, Eng + Original Eng

Reply to topic
DL-List and Torrent activity
Size:  744 MB   |    Registered:  4 years   |    Completed:  1 time

Seeder not seen: 1 month 19 days

 
   
 
 
Author Message

star21 ®

Gender: Female

Longevity: 4 years 1 month

Posts: 551946

Location: Екатеринбург

Post 30-Nov-2015 05:47

[Quote]

Леди из кордебалета / Ladies of the Chorus
Страна: США
Жанр: мюзикл, мелодрама
Год выпуска: 1948
Продолжительность: 00:57:49
Перевод: Одноголосый закадровый - binjak
Cубтитры: русские (binjak), английские
Оригинальная аудиодорожка: английский

Режиссер: Фил Карлсон / Phil Karlson
В ролях: Адэль Йоргенс, Мэрилин Монро, Рэнд Брукс, Нана Брайант, Эдди Гарр, Стивен Герэй, Дэйв Бэрри, Глэдис Блейк, Пол Э. Барнс, Роберт Кларк
Описание: Преуспевающий бизнесмен-аристократ Рэнди Кэррол и певичка из бурлеска Пэгги Мартин полюбили друг друга и решили пожениться. Мать Пегги боится, что окружение Рэнди и его семья этот мезальянс не примет. А тут еще мать Рэнди миссис Кэррол...
Качество видео:
Формат видео: AVI
Видео: 624x480 (1.30:1), 25 fps, XviD build 73 ~1399 kbps avg, 0.19 bit/pixel
Аудио: 48 kHz, AC3 Dolby Digital, 2/0 (L,R) ch, ~192 kbps - одноголосый
Аудио: 48 kHz, AC3 Dolby Digital, 2/0 (L,R) ch, ~192 kbps - оригинал

MediaInfo

Общее
Полное имя : H:\Ladies.of.the.Chorus.1949.dvdrip_[745]_[teko]\Ladies.of.the.Chorus.1949.dvdrip_[745].avi
Формат : AVI
Формат/Информация : Audio Video Interleave
Размер файла : 744 Мбайт
Продолжительность : 57 м.
Общий поток : 1799 Кбит/сек
Программа кодирования : VirtualDubMod 1.5.10.3 | www.virtualdub-fr.org || (build 2550/release)
Библиотека кодирования : VirtualDubMod build 2550/release
Видео
Идентификатор : 0
Формат : MPEG-4 Visual
Профиль формата : Advanced Simple@L5
Параметр BVOP формата : 2
Параметр QPel формата : Нет
Параметр GMC формата : Без точки перехода
Параметр матрицы формата : Выборочная
Идентификатор кодека : XVID
Идентификатор кодека/Подсказка : XviD
Продолжительность : 57 м.
Битрейт : 1401 Кбит/сек
Ширина : 624 пикселя
Высота : 480 пикселей
Соотношение сторон : 4:3
Частота кадров : 25,000 кадров/сек
Цветовое пространство : YUV
Субдискретизация насыщенности : 4:2:0
Битовая глубина : 8 бит
Тип развёртки : Прогрессивная
Метод сжатия : С потерями
Бит/(Пиксели*Кадры) : 0.187
Размер потока : 579 Мбайт (78%)
Библиотека кодирования : XviD 73
Аудио #1
Идентификатор : 1
Формат : AC-3
Формат/Информация : Audio Coding 3
Расширение режима : CM (complete main)
Параметр Endianness формата : Big
Идентификатор кодека : 2000
Продолжительность : 57 м.
Вид битрейта : Постоянный
Битрейт : 192 Кбит/сек
Каналы : 2 канала
Расположение каналов : Front: L R
Частота : 48,0 КГц
Битовая глубина : 16 бит
Метод сжатия : С потерями
Размер потока : 79,4 Мбайт (11%)
Выравнивание : Разделение по промежуткам
Продолжительность промежутка : 40 мс. (1,00 видеокадр)
Время предзагрузки промежутка : 500 мс.
Аудио #2
Идентификатор : 2
Формат : AC-3
Формат/Информация : Audio Coding 3
Расширение режима : CM (complete main)
Параметр Endianness формата : Big
Идентификатор кодека : 2000
Продолжительность : 57 м.
Вид битрейта : Постоянный
Битрейт : 192 Кбит/сек
Каналы : 2 канала
Расположение каналов : Front: L R
Частота : 48,0 КГц
Битовая глубина : 16 бит
Метод сжатия : С потерями
Размер потока : 79,4 Мбайт (11%)
Выравнивание : Разделение по промежуткам
Продолжительность промежутка : 40 мс. (1,00 видеокадр)
Время предзагрузки промежутка : 500 мс.
Релиз группы:
-
-

To download the content you need:
1. Download and install torrent client [for Windows] or for mobile system
2. Click on [Download]
Attention.
If the test YOU are NOT a ROBOT - does not work, then You are using an outdated browser.
Install the current browser and click on [Download]
Security: torrent client is allowed by Kaspersky.

[en.asmlocator.ru].t3870.torrent 
Torrent: Registered [ 2015-11-30 05:45 ] · 4DB68889FBE2F07956AC0B34F88857C8E24B05C2

Download .torrent

Download

15 KB

Status: checked
Completed: 1 times
Size: 744 MB
terms.php
[Profile] [PM]
Display posts:    
Reply to topic

Current time is: 08-Dec 11:28

All times are UTC ± 0



You cannot post new topics in this forum
You cannot reply to topics in this forum
You cannot edit your posts in this forum
You cannot delete your posts in this forum
You cannot vote in polls in this forum
You cannot attach files in this forum
You can download files in this forum
Верим фактам, а не вранью Путина! Факт, что Правительство ведёт Россию к истреблению.
Так как численность населения падает, даже не смотря на приток эмигрантов!
Русская нация вымирает и вырождается, смешиваясь с эмигрантами!
Факт, что военных и граждан предприятий заставляют голосовать за партию Единая Россия и Путина
ПОД СТРАХОМ УВОЛЬНЕНИЯ!
Нам не нужно Правительство, блокирующее личную жизнь, интернет, нарушающее сохранность данных.
Все эти действия финансируются за счёт народа!