Зеркало / Miroir (Раймон Лами / Raymond Lamy) [1947, Франция, Драма, DVDRip] MVO + Original Fre + Sub Rus (larisa k)

Reply to topic
DL-List and Torrent activity
Size:  1.26 GB   |    Registered:  4 years 4 months   |    Completed:  0 times

Seeder not seen: 2 years 9 months

 
   
 
 
Author Message

star21 ®

Gender: Female

Longevity: 4 years 5 months

Posts: 551945

Location: Екатеринбург

Post 30-Nov-2015 05:47

[Quote]

Зеркало / Miroir--
Страна: Франция
Жанр: Драма
Год выпуска: 1947
Продолжительность: 01:29:38
Перевод: Любительский (многоголосый закадровый)
Перевод субтитров: larisa_k
Озвучка: Andi999, Бахурани, Nastia
Cубтитры: Русские (на одну песню)
Оригинальная аудиодорожка: французкий--Режиссер: Раймон Лами / Raymond Lamy--В ролях: Жан Габен, Антонин Барваль, Даниэль Желен, Жизель Превилле, Анри Кремье, Роберт Арну, Рене Бланкар, Шарль Лемонтье, Анри Пупон, Трэмел--Описание: Мисье Люссак уважаемый буржуа, известный бизнесмен и добропорядочный семьянин. Складываеться такое впечатлению что он достиг всего чего хотел. Но такой ли он человек каким хочет казаться? И так ли уж истинно и прочно его счастье?...--Cведение звука: pca1962--Сэмпл: http://multi-up.com/1064463
Качество видео: DVDRip
Формат видео: AVI
Видео: XviD, 640x480, 25.00 fps, 1607 kbps
Аудио: AC3, 48 kHz, 2.0 (stereo), 192 kbps (русский)
Аудио 2: AC3, 48 kHz, 2.0 (stereo), 192 kbps (французкий)
Формат субтитров: softsub (SRT)

MediaInfo

General
Complete name : Zerkalo.1947.DVDRip.XviD.pca1962\Zerkalo.1947.DVDRip.XviD.pca1962.avi
Format : AVI
Format/Info : Audio Video Interleave
File size : 1.26 GiB
Duration : 1h 29mn
Overall bit rate : 2 006 Kbps
Movie name : Zerkalo.1947.
Director : mixing audio rus - pca1962
Genre : Drama
Writing application : VirtualDubMod 1.5.10.2 (build 2540/release)
Original source form/Name : Movie
Comment : translate sub - larisa_k
Video
ID : 0
Format : MPEG-4 Visual
Format profile : Advanced Simple@L5
Format settings, BVOP : 1
Format settings, QPel : No
Format settings, GMC : No warppoints
Format settings, Matrix : Default (MPEG)
Codec ID : XVID
Codec ID/Hint : XviD
Duration : 1h 29mn
Bit rate : 1607 Kbps
Width : 640 pixels
Height : 480 pixels
Display aspect ratio : 4:3
Frame rate : 25.000 fps
Color space : YUV
Chroma subsampling : 4:2:0
Bit depth : 8 bits
Scan type : Progressive
Compression mode : Lossy
Bits/(Pixel*Frame) : 0.209
Stream size : 1.01 GiB (80%)
Writing library : XviD 1.1.2 (UTC 2006-11-01)
Audio #1
ID : 1
Format : AC-3
Format/Info : Audio Coding 3
Mode extension : CM (complete main)
Format settings, Endianness : Big
Codec ID : 2000
Duration : 1h 29mn
Bit rate mode : Constant
Bit rate : 192 Kbps
Channel count : 2 channels
Channel positions : Front: L R
Sampling rate : 48.0 KHz
Bit depth : 16 bits
Compression mode : Lossy
Stream size : 123 MiB (10%)
Alignment : Split accross interleaves
Interleave, duration : 40 ms (1.00 video frame)
Interleave, preload duration : 500 ms
Audio #2
ID : 2
Format : AC-3
Format/Info : Audio Coding 3
Mode extension : CM (complete main)
Format settings, Endianness : Big
Codec ID : 2000
Duration : 1h 29mn
Bit rate mode : Constant
Bit rate : 192 Kbps
Channel count : 2 channels
Channel positions : Front: L R
Sampling rate : 48.0 KHz
Bit depth : 16 bits
Compression mode : Lossy
Stream size : 123 MiB (10%)
Alignment : Split accross interleaves
Interleave, duration : 40 ms (1.00 video frame)
Interleave, preload duration : 500 ms

Скриншот c названием фильма

To download the content you need:
1. Download and install torrent client [for Windows] or for mobile system
2. Click on [Download]
Attention.
If the test YOU are NOT a ROBOT - does not work, then You are using an outdated browser.
Install the current browser and click on [Download]

Do not work with Yandex browser. Uploading files to them is erroneous.
Security: torrent client is allowed by Kaspersky.

[en.asmlocator.ru].t3869.torrent 
Torrent: Registered [ 2015-11-30 05:45 ] · FC9CBFA67588E16FAB1DB9BC4099C5B9572B2BAA

Download .torrent

Download

13 KB

Status: checked
Completed: 0 times
Size: 1.26 GB
terms.php
[Profile] [PM]
Display posts:    
Reply to topic

Current time is: 08-Apr 02:59

All times are UTC ± 0



You cannot post new topics in this forum
You cannot reply to topics in this forum
You cannot edit your posts in this forum
You cannot delete your posts in this forum
You cannot vote in polls in this forum
You cannot attach files in this forum
You can download files in this forum
Верим фактам, а не вранью Путина! Факт, что Правительство ведёт Россию к истреблению.
Так как численность населения падает, даже не смотря на приток эмигрантов!
Русская нация вымирает и вырождается, смешиваясь с эмигрантами!
Факт, что военных и граждан предприятий заставляют голосовать за партию Единая Россия и Путина
ПОД СТРАХОМ УВОЛЬНЕНИЯ!
Нам не нужно Правительство, блокирующее личную жизнь, интернет, нарушающее сохранность данных.
Все эти действия финансируются за счёт народа!