Галлиполи / Gallipoli (Питер Уир / Peter Weir) [1981, Австралия, драма, приключения, военный, история, WEB-DLRip] DVO

Reply to topic
DL-List and Torrent activity
Size:  1.46 GB   |    Registered:  4 years   |    Completed:  0 times

Seeder not seen: Never

 
   
 
 
Author Message

star21 ®

Gender: Female

Longevity: 4 years 1 month

Posts: 551946

Location: Екатеринбург

Post 30-Nov-2015 05:47

[Quote]

Галлиполи / Gallipoli
Страна: Австралия
Жанр: драма, приключения, военный, история
Год выпуска: 1981
Продолжительность: 01:51:31
Перевод: Профессиональный (двухголосый закадровый)
Cубтитры: нет
Режиссер: Питер Уир / Peter Weir
В ролях: Марк Ли, , Билл Керр, Роберт Грабб, Тим МакКензи, Ронни Грэм, Хит Харрис, Чарлз Юнупингу, Хэролд Хопкинс, Герда Николсон
Описание: 1915 год. Два романтически настроенных молодых человека вступают в ряды австралийских вооруженных сил. После ускоренной подготовки в «учебке», затерянной в песках близ древнеегипетских пирамид, приятелей отправляют в полк, который ведет боевые действия против турецкой армии.
Друзья еще не знают, что им предстоит принять участие в битве при Галлиполи — одном из самых кровавых сражений первой мировой войны…
Фильм состоит из двух частей. В первой части показана жизнь австралийского общества в начале XX века, настроения, царившие среди людей в Австралии. Режиссёр рассказывает историю знакомства двух молодых людей, между которыми возникает дружба. Но в мире начинается Первая мировая война, и друзья, настроенные романтично, записываются добровольцами в австралийскую армию.
Вторая часть фильма является хроникой плохо спланированного злополучного сражения при Галлиполи.
Доп. информация: В фильме звучит музыка Жана-Мишеля Жарра, Томазо Альбинони , Жоржа Бизе , Иоганна Штрауса, Никколо Паганини.

Награды

1981 — восемь премий Австралийского киноинститута: лучший фильм (Патриша Ловелл, Роберт Стигвуд), лучший режиссёр (Питер Уир), лучший сценарий (Дэвид Уильямсон), лучший актёр (Мэл Гибсон), лучший актёр второго плана (Билл Хантер), лучшая операторская работа (Расселл Бойд), лучший монтаж (Уильям Андерсон), лучший звук (Дон Коннолли, Грег Белл, Питер Фентон). Также картина была номинирована ещё в четырёх категориях: лучший актёр (Марк Ли), лучший актёр второго плана (Билл Керр), лучшая работа художника (Герберт Пинтер, Уэнди Стайтс), лучшие костюмы (Терри Райан, Уэнди Стайтс).
1981 — номинация на премию Национального совета кинокритиков США за лучший фильм.
1982 — номинация на премию «Золотой Глобус» за лучший зарубежный фильм.
1982 — премия Австралийского общества кинооператоров лучшему оператору года (Расселл Бойд).

Сэмпл: http://multi-up.com/1064610
Качество видео: WEB-DLRip
Формат видео: AVI
Видео: XviD, 720x304 (2.37:1), 23.976 fps, 1478 kbps avg, 0.282 bit/pixel
Аудио: 48 kHz, AC3 Dolby Digital, 2 ch, ~192.00 kbps (Русский)
Аудио 2: 48 kHz, AC3 Dolby Digital, 2 ch, ~192.00 kbps (Английский)

MediaInfo

Общее
Полное имя : C:\Users\Победа\Downloads\Gallipoli.1981.WEB-DLRip.avi
Формат : AVI
Формат/Информация : Audio Video Interleave
Профиль формата : OpenDML
Настройки формата : rec
Размер файла : 1,46 Гбайт
Продолжительность : 1 ч. 51 м.
Общий поток : 1870 Кбит/сек
Название фильма : Галлиполи /Gallipoli (1981) WEB-DLRip rip by Rulya74
Программа кодирования : AVI-Mux GUI 1.17.8.3, Feb 16 201019:42:50
Видео
Идентификатор : 0
Формат : MPEG-4 Visual
Профиль формата : Advanced Simple@L5
Параметр BVOP формата : 1
Параметр QPel формата : Нет
Параметр GMC формата : Без точки перехода
Параметр матрицы формата : Выборочная
Режим смешивания : Сжатый битовый поток
Идентификатор кодека : XVID
Идентификатор кодека/Подсказка : XviD
Продолжительность : 1 ч. 51 м.
Битрейт : 1478 Кбит/сек
Ширина : 720 пикселей
Высота : 304 пикселя
Соотношение сторон : 2,35:1
Частота кадров : 23,976 кадра/сек
Цветовое пространство : YUV
Субдискретизация насыщенности : 4:2:0
Битовая глубина : 8 бит
Тип развёртки : Прогрессивная
Метод сжатия : С потерями
Бит/(Пиксели*Кадры) : 0.282
Размер потока : 1,15 Гбайт (79%)
Библиотека кодирования : XviD 65
Аудио #1
Идентификатор : 1
Формат : AC-3
Формат/Информация : Audio Coding 3
Расширение режима : CM (complete main)
Параметр Endianness формата : Big
Идентификатор кодека : 2000
Продолжительность : 1 ч. 51 м.
Вид битрейта : Постоянный
Битрейт : 192 Кбит/сек
Каналы : 2 канала
Расположение каналов : Front: L R
Частота : 48,0 КГц
Битовая глубина : 16 бит
Метод сжатия : С потерями
Размер потока : 153 Мбайт (10%)
Выравнивание : Соединение по промежуткам
Продолжительность промежутка : 64 мс. (1,53 видеокадра)
Время предзагрузки промежутка : 192 мс.
Заголовок : Профессиональный (двухголосый закадровый)
Аудио #2
Идентификатор : 2
Формат : AC-3
Формат/Информация : Audio Coding 3
Расширение режима : CM (complete main)
Параметр Endianness формата : Big
Идентификатор кодека : 2000
Продолжительность : 1 ч. 51 м.
Вид битрейта : Постоянный
Битрейт : 192 Кбит/сек
Каналы : 2 канала
Расположение каналов : Front: L R
Частота : 48,0 КГц
Битовая глубина : 16 бит
Метод сжатия : С потерями
Размер потока : 153 Мбайт (10%)
Выравнивание : Соединение по промежуткам
Продолжительность промежутка : 64 мс. (1,53 видеокадра)
Время предзагрузки промежутка : 192 мс.
Заголовок : Оригинал

Скриншот c названием фильма

Скриншоты




To download the content you need:
1. Download and install torrent client [for Windows] or for mobile system
2. Click on [Download]
Attention.
If the test YOU are NOT a ROBOT - does not work, then You are using an outdated browser.
Install the current browser and click on [Download]
Security: torrent client is allowed by Kaspersky.

[en.asmlocator.ru].t3868.torrent 
Torrent: Registered [ 2015-11-30 05:45 ] · 315B8B724B84200F7FAF37ECCDFE0A592D542C29

Download .torrent

Download

30 KB

Status: checked
Completed: 0 times
Size: 1.46 GB
terms.php
[Profile] [PM]
Display posts:    
Reply to topic

Current time is: 08-Dec 15:11

All times are UTC ± 0



You cannot post new topics in this forum
You cannot reply to topics in this forum
You cannot edit your posts in this forum
You cannot delete your posts in this forum
You cannot vote in polls in this forum
You cannot attach files in this forum
You can download files in this forum
Верим фактам, а не вранью Путина! Факт, что Правительство ведёт Россию к истреблению.
Так как численность населения падает, даже не смотря на приток эмигрантов!
Русская нация вымирает и вырождается, смешиваясь с эмигрантами!
Факт, что военных и граждан предприятий заставляют голосовать за партию Единая Россия и Путина
ПОД СТРАХОМ УВОЛЬНЕНИЯ!
Нам не нужно Правительство, блокирующее личную жизнь, интернет, нарушающее сохранность данных.
Все эти действия финансируются за счёт народа!