Имитация жизни / Imitation of Life (Дуглас Сирк / Douglas Sirk) [1959, США, мелодрама, BDRip] AVO (Юрий Сербин) + Sub Eng + Original Eng

Reply to topic
DL-List and Torrent activity
Size:  1.62 GB   |    Registered:  4 years   |    Completed:  0 times

Seeder not seen: 1 year 8 months

 
   
 
 
Author Message

star21 ®

Gender: Female

Longevity: 4 years 1 month

Posts: 551946

Location: Екатеринбург

Post 30-Nov-2015 05:47

[Quote]

Имитация жизни / Imitation of Life
Страна: США
Жанр: мелодрама
Год выпуска: 1959
Продолжительность: 02:04:31
Перевод: Авторский (одноголосый закадровый) - Юрий Сербин
Cубтитры: английские
Оригинальная аудиодорожка: английский

Режиссер: Дуглас Сирк / Douglas Sirk
В ролях: Лана Тернер, Джон Гэвин, Сандра Ди, Сьюзэн Кохнер, Роберт Алда, Дэн О’Херлихи, Хуанита Мур, Карин Дикер, Терри Бёрнэм
Описание: Вторая экранизация одноименного романа Фанни Хёрст (1933).
"Двенадцать лет из жизни четырех женщин, разбивших в кровь коленки в погоне за химерами счастья. В кадр сверху падают крупные бриллианты. Последняя надпись — «Режиссер Дуглас Сирк» появляется на фоне экрана, полного камнями по край. Бриллианты так похожи на слезы, что обильно прольются в этой величайшей из мелодрам. «Бриллианты-слезы» — увертюра к истории о том, как безбожно прошляпили жизнь с ее нерепетируемыми чувствами те, кто убивался ради любви матери, благодарности дочери, признания в обществе — мифов благополучия. Из четырех женщин догоняет мечту только героиня Тернер — актриса, чья профессия уже подразумевает неискренность. Бриллианты вместо слез — суть метода Сирка, о котором Альмодовар сказал: «Ему плевать, что секретарши так не одеваются, он нарядит их в тот цвет и фасон, что создадут нужное эмоциональное состояние». Гений Сирка — в умении приспособить предметы китча (интерьер, костюм, транспорт) к драматическому повествованию и заставить их играть почище актеров. Другим осталось только повторять за ним — неслучайно «Имитация жизни» растащена по дамским кинороманам: витую подставку для цветов можно найти в офисе фасбиндеровской Марии Браун, рыжий занавес с золотой тесьмой — за плечами рыдающей Марисы Паредес в «Высоких каблуках», леопардовое манто Ланы Тернер на плечах Денев в «8 женщинах». А сюжет о матери-артистке, не давшей дочери обрести счастье, — в «Осенней сонате» Ингмара Бергмана."

(c) Алексей Васильев, «Афиша»
Качество видео:
Формат видео: AVI
Видео: 704x352 (2.00:1), 23.976 fps, XviD build 73 ~1471 kbps avg, 0.25 bit/pixel
Аудио: 48 kHz, AC3 Dolby Digital, 2/0 (L,R) ch, ~192 kbps - авторский
Аудио: 48 kHz, AC3 Dolby Digital, 2/0 (L,R) ch, ~192 kbps - оригинал (отдельным файлом)

MediaInfo

Общее
Полное имя : H:\Imitation.of.Life.1959.bdrip_[1.46]_[teko]\Imitation.of.Life.1959.bdrip_[1.46].avi
Формат : AVI
Формат/Информация : Audio Video Interleave
Размер файла : 1,46 Гбайт
Продолжительность : 2 ч. 4 м.
Общий поток : 1673 Кбит/сек
Программа кодирования : VirtualDubMod 1.5.10.3 | www.virtualdub-fr.org || (build 2550/release)
Библиотека кодирования : VirtualDubMod build 2550/release
Видео
Идентификатор : 0
Формат : MPEG-4 Visual
Профиль формата : Advanced Simple@L5
Параметр BVOP формата : 1
Параметр QPel формата : Нет
Параметр GMC формата : Без точки перехода
Параметр матрицы формата : Выборочная
Идентификатор кодека : XVID
Идентификатор кодека/Подсказка : XviD
Продолжительность : 2 ч. 4 м.
Битрейт : 1472 Кбит/сек
Ширина : 704 пикселя
Высота : 352 пикселя
Соотношение сторон : 2,000
Частота кадров : 23,976 кадра/сек
Цветовое пространство : YUV
Субдискретизация насыщенности : 4:2:0
Битовая глубина : 8 бит
Тип развёртки : Прогрессивная
Метод сжатия : С потерями
Бит/(Пиксели*Кадры) : 0.248
Размер потока : 1,28 Гбайт (88%)
Библиотека кодирования : XviD 73
Аудио
Идентификатор : 1
Формат : AC-3
Формат/Информация : Audio Coding 3
Расширение режима : CM (complete main)
Параметр Endianness формата : Big
Идентификатор кодека : 2000
Продолжительность : 2 ч. 4 м.
Вид битрейта : Постоянный
Битрейт : 192 Кбит/сек
Каналы : 2 канала
Расположение каналов : Front: L R
Частота : 48,0 КГц
Битовая глубина : 16 бит
Метод сжатия : С потерями
Размер потока : 171 Мбайт (11%)
Выравнивание : Разделение по промежуткам
Продолжительность промежутка : 42 мс. (1,00 видеокадр)
Время предзагрузки промежутка : 500 мс.
Релиз группы:
-
-

To download the content you need:
1. Download and install torrent client [for Windows] or for mobile system
2. Click on [Download]
Attention.
If the test YOU are NOT a ROBOT - does not work, then You are using an outdated browser.
Install the current browser and click on [Download]
Security: torrent client is allowed by Kaspersky.

[en.asmlocator.ru].t3863.torrent 
Torrent: Registered [ 2015-11-30 05:45 ] · 217B15CC881FEAE557E7D55C0B8508022253C581

Download .torrent

Download

17 KB

Status: checked
Completed: 0 times
Size: 1.62 GB
terms.php
[Profile] [PM]
Display posts:    
Reply to topic

Current time is: 10-Dec 07:24

All times are UTC ± 0



You cannot post new topics in this forum
You cannot reply to topics in this forum
You cannot edit your posts in this forum
You cannot delete your posts in this forum
You cannot vote in polls in this forum
You cannot attach files in this forum
You can download files in this forum
Верим фактам, а не вранью Путина! Факт, что Правительство ведёт Россию к истреблению.
Так как численность населения падает, даже не смотря на приток эмигрантов!
Русская нация вымирает и вырождается, смешиваясь с эмигрантами!
Факт, что военных и граждан предприятий заставляют голосовать за партию Единая Россия и Путина
ПОД СТРАХОМ УВОЛЬНЕНИЯ!
Нам не нужно Правительство, блокирующее личную жизнь, интернет, нарушающее сохранность данных.
Все эти действия финансируются за счёт народа!