Дядя Ваня / Uncle Vanya (Кристофер Морахэн / Christopher Morahan) [1970, Великобритания, драма, экранизация, DVDRip] Sub Rus (VudоS) + Original Eng

Reply to topic
DL-List and Torrent activity
Size:  1.46 GB   |    Registered:  4 years   |    Completed:  0 times

Seeder not seen: Never

 
   
 
 
Author Message

star21 ®

Gender: Female

Longevity: 4 years 1 month

Posts: 551946

Location: Екатеринбург

Post 30-Nov-2015 05:47

[Quote]

Дядя Ваня / Uncle Vanya
Страна: Великобритания
Жанр: драма, экранизация
Год выпуска: 1970
Продолжительность: 02:05:58
Перевод: Субтитры - VudоS
Cубтитры: русские
Оригинальная аудиодорожка: английский

Режиссер: Кристофер Морахэн / Christopher Morahan
В ролях: Фредди Джонс, Энтони Хопкинс, Энн Белл, Роланд Калвер, Дженифер Армитедж, Сьюзан Ричардс, Джон Бескомб, Энн Дайсон, Ричард Бил, Эдмонд Беннетт, Стейси Тендетер
Описание: Экранизация одноименной пьесы А.П.Чехова.
Качество видео:
Формат видео: AVI
Видео: 624x480 (1.30:1), 23.976 fps, XviD build 73 ~1390 kbps avg, 0.19 bit/pixel
Аудио: 48 kHz, AC3 Dolby Digital, 2/0 (L,R) ch, ~256 kbps

Фрагмент субтитров

00:59:46,229 --> 00:59:49,392
- Ну, мир, мир! Забудем.
- Не надо смотреть так,
839
00:59:49,466 --> 00:59:53,960
тебе это не идет.
Надо всем верить,
840
00:59:56,006 --> 00:59:58,099
иначе жить нельзя.
841
01:00:00,277 --> 01:00:03,144
Скажи мне по совести,
842
01:00:03,847 --> 01:00:05,644
как друг...
843
01:00:06,182 --> 01:00:07,911
Ты счастлива?
844
01:00:09,219 --> 01:00:12,188
- Нет.
- Я это знала.
845
01:00:13,256 --> 01:00:14,883
Еще один вопрос.
846
01:00:15,492 --> 01:00:17,790
Скажи откровенно
847
01:00:18,862 --> 01:00:21,194
ты хотела бы, чтобы у тебя
был молодой муж?
848
01:00:24,301 --> 01:00:28,533
Какая ты еще девочка.
849
01:00:29,205 --> 01:00:31,730
Конечно, хотела бы!
850
01:00:33,910 --> 01:00:36,879
Ну, спроси еще что-нибудь,
851
01:00:36,947 --> 01:00:39,211
спроси...
852
01:00:40,150 --> 01:00:41,708
Тебе доктор нравится?
853
01:00:42,619 --> 01:00:45,588
Да, очень.

MediaInfo

Общее
Полное имя : H:\Uncle.Vanya.1970.dvdrip_[1.46]_[teko]\Uncle.Vanya.1970.dvdrip_[1.46].avi
Формат : AVI
Формат/Информация : Audio Video Interleave
Размер файла : 1,46 Гбайт
Продолжительность : 2 ч. 5 м.
Общий поток : 1656 Кбит/сек
Программа кодирования : VirtualDubMod 1.5.10.3 | www.virtualdub-fr.org || (build 2550/release)
Библиотека кодирования : VirtualDubMod build 2550/release
Видео
Идентификатор : 0
Формат : MPEG-4 Visual
Профиль формата : Advanced Simple@L5
Параметр BVOP формата : 1
Параметр QPel формата : Нет
Параметр GMC формата : Без точки перехода
Параметр матрицы формата : Выборочная
Идентификатор кодека : XVID
Идентификатор кодека/Подсказка : XviD
Продолжительность : 2 ч. 5 м.
Битрейт : 1391 Кбит/сек
Ширина : 624 пикселя
Высота : 480 пикселей
Соотношение сторон : 4:3
Частота кадров : 23,976 кадра/сек
Цветовое пространство : YUV
Субдискретизация насыщенности : 4:2:0
Битовая глубина : 8 бит
Тип развёртки : Прогрессивная
Метод сжатия : С потерями
Бит/(Пиксели*Кадры) : 0.194
Размер потока : 1,22 Гбайт (84%)
Библиотека кодирования : XviD 73
Аудио
Идентификатор : 1
Формат : AC-3
Формат/Информация : Audio Coding 3
Расширение режима : CM (complete main)
Параметр Endianness формата : Big
Идентификатор кодека : 2000
Продолжительность : 2 ч. 5 м.
Вид битрейта : Постоянный
Битрейт : 256 Кбит/сек
Каналы : 2 канала
Расположение каналов : Front: L R
Частота : 48,0 КГц
Битовая глубина : 16 бит
Метод сжатия : С потерями
Размер потока : 231 Мбайт (15%)
Выравнивание : Разделение по промежуткам
Продолжительность промежутка : 42 мс. (1,00 видеокадр)
Время предзагрузки промежутка : 500 мс.
Релиз группы:
-
-

To download the content you need:
1. Download and install torrent client [for Windows] or for mobile system
2. Click on [Download]
Attention.
If the test YOU are NOT a ROBOT - does not work, then You are using an outdated browser.
Install the current browser and click on [Download]
Security: torrent client is allowed by Kaspersky.

[en.asmlocator.ru].t3862.torrent 
Torrent: Registered [ 2015-11-30 05:45 ] · 06347CB26C2BD1EBAFBB2FFCA99D226DD78CF7E9

Download .torrent

Download

15 KB

Status: checked
Completed: 0 times
Size: 1.46 GB
terms.php
[Profile] [PM]
Display posts:    
Reply to topic

Current time is: 08-Dec 10:40

All times are UTC ± 0



You cannot post new topics in this forum
You cannot reply to topics in this forum
You cannot edit your posts in this forum
You cannot delete your posts in this forum
You cannot vote in polls in this forum
You cannot attach files in this forum
You can download files in this forum
Верим фактам, а не вранью Путина! Факт, что Правительство ведёт Россию к истреблению.
Так как численность населения падает, даже не смотря на приток эмигрантов!
Русская нация вымирает и вырождается, смешиваясь с эмигрантами!
Факт, что военных и граждан предприятий заставляют голосовать за партию Единая Россия и Путина
ПОД СТРАХОМ УВОЛЬНЕНИЯ!
Нам не нужно Правительство, блокирующее личную жизнь, интернет, нарушающее сохранность данных.
Все эти действия финансируются за счёт народа!