Бремя страстей человеческих / Of Human Bondage (Кен Хьюз / Ken Hughes, Генри Хэтэуэй / Henry Hathaway, Брайан Форбс / Bryan Forbes) [1964, Великобритания, драма, DVDRip] MVO ("НТВ+") + Original Eng

Reply to topic
DL-List and Torrent activity
Size:  1.47 GB   |    Registered:  4 years   |    Completed:  0 times

Seeder not seen: Never

 
   
 
 
Author Message

star21 ®

Gender: Female

Longevity: 4 years 1 month

Posts: 551946

Location: Екатеринбург

Post 30-Nov-2015 05:47

[Quote]

Бремя страстей человеческих / Of Human Bondage

Слоган: «SOME WOMEN CAN'T HELP BEING WHAT THEY ARE!»
Страна: Великобритания
Студия: Metro-Goldwyn-Mayer British Studios, Seven Arts Pictures
Жанр: драма
Год выпуска: 1964
Продолжительность: 01:39:27
Перевод: Профессиональный (многоголосый закадровый) - "НТВ+"
Cубтитры: нет
Оригинальная аудиодорожка: английский
Режиссер: Кен Хьюз / Ken Hughes, Генри Хэтэуэй / Henry Hathaway, Брайан Форбс / Bryan Forbes
В ролях: Ким Новак, Лоуренс Харви, Роберт Морли, Шиван МакКенна, Роджер Ливси, Джек Хедли, Нанетт Ньюман, Рональд Лейси, Олив Уайт, Норман Смит ...
Описание: Филип Кэри, хромой сирота, рано лишившийся родительской заботы и ласки. Его судьба прослеживается от несчастливого детства, через тернии студенческих лет, до становления и возмужания. Филип мучительно ищет свое призвание и пытается понять — в чем же состоит смысл жизни. Ему предстоит испытать немало разочарований и расстаться со многими иллюзиями, прежде чем он сумеет найти свой ответ на этот вопрос…
Доп. информация: Рип сделан из этого-- [imdb]http://www.imdb.com/title/tt0058425[/imdb]--Of Human Bondage (1964)_DVDRip_Sample_.avi--Качество видео: DVDRip
Формат видео: AVI
Видео: 704x400 (1.76:1), 23.976 fps, XviD build 50 ~1711 kbps avg, 0.25 bit/pixel
Аудио 1: 48 kHz, AC3 Dolby Digital, 2/0 (L,R) ch, ~192 kbps, Русский
Аудио 2: 48 kHz, AC3 Dolby Digital, 2/0 (L,R) ch, ~192 kbps, Английский

Награды


-
-

AviInfo

File: Of Human Bondage (1964)_DVDRip_.avi
Title: Of Human Bondage (1964)
Copyleft: Ripped_by_rjhlb777
Genre: Drama
Category: Movie
Comment: MVO ("НТВ+") + Original Eng
FileSize: 1501.46 Mb ( 1 574 400 000 bytes )
Play length: 01:39:27.002 (143065 frames)
Subtitles: Not Present
Video: 704x400 (1.76:1), 23.976 fps, XviD build 50 ~1711 kbps avg, 0.25 bit/pixel
Audio #1: 48 kHz, AC3 Dolby Digital, 2/0 (L,R) ch, ~192 kbps
Audio #2: 48 kHz, AC3 Dolby Digital, 2/0 (L,R) ch, ~192 kbps

MediaInfo

General
Complete name : C:\Temp\Of Human Bondage (1964)_DVDRip_.avi
Format : AVI
Format/Info : Audio Video Interleave
File size : 1.47 GiB
Duration : 1h 39mn
Overall bit rate : 2 111 Kbps
Movie name : Of Human Bondage (1964)
Genre : Drama
Writing application : VirtualDubMod 1.5.10.3 | www.virtualdub-fr.org || (build 2550/release)
Original source form/Name : Movie
Copyright : Ripped_by_rjhlb777
Comment : MVO ("НТВ+") + Original Eng
Video
ID : 0
Format : MPEG-4 Visual
Format profile : Advanced Simple@L5
Format settings, BVOP : 1
Format settings, QPel : No
Format settings, GMC : No warppoints
Format settings, Matrix : Default (MPEG)
Codec ID : XVID
Codec ID/Hint : XviD
Duration : 1h 39mn
Bit rate : 1 712 Kbps
Width : 704 pixels
Height : 400 pixels
Display aspect ratio : 16:9
Frame rate : 23.976 fps
Color space : YUV
Chroma subsampling : 4:2:0
Bit depth : 8 bits
Scan type : Progressive
Compression mode : Lossy
Bits/(Pixel*Frame) : 0.254
Stream size : 1.19 GiB (81%)
Writing library : XviD 1.2.1 (UTC 2008-12-04)
Audio #1
ID : 1
Format : AC-3
Format/Info : Audio Coding 3
Mode extension : CM (complete main)
Format settings, Endianness : Big
Codec ID : 2000
Duration : 1h 39mn
Bit rate mode : Constant
Bit rate : 192 Kbps
Channel(s) : 2 channels
Channel positions : Front: L R
Sampling rate : 48.0 KHz
Compression mode : Lossy
Stream size : 137 MiB (9%)
Alignment : Split accross interleaves
Interleave, duration : 42 ms (1.00 video frame)
Interleave, preload duratio : 500 ms
Audio #2
ID : 2
Format : AC-3
Format/Info : Audio Coding 3
Mode extension : CM (complete main)
Format settings, Endianness : Big
Codec ID : 2000
Duration : 1h 39mn
Bit rate mode : Constant
Bit rate : 192 Kbps
Channel(s) : 2 channels
Channel positions : Front: L R
Sampling rate : 48.0 KHz
Compression mode : Lossy
Stream size : 137 MiB (9%)
Alignment : Split accross interleaves
Interleave, duration : 42 ms (1.00 video frame)
Interleave, preload duratio : 500 ms

To download the content you need:
1. Download and install torrent client [for Windows] or for mobile system
2. Click on [Download]
Attention.
If the test YOU are NOT a ROBOT - does not work, then You are using an outdated browser.
Install the current browser and click on [Download]
Security: torrent client is allowed by Kaspersky.

[en.asmlocator.ru].t3860.torrent 
Torrent: Registered [ 2015-11-30 05:45 ] · AA872BD9993284FBCF6954DA6B0DE2E9AC0C27CB

Download .torrent

Download

15 KB

Status: checked
Completed: 0 times
Size: 1.47 GB
terms.php
[Profile] [PM]
Display posts:    
Reply to topic

Current time is: 05-Dec 14:18

All times are UTC ± 0



You cannot post new topics in this forum
You cannot reply to topics in this forum
You cannot edit your posts in this forum
You cannot delete your posts in this forum
You cannot vote in polls in this forum
You cannot attach files in this forum
You can download files in this forum
Верим фактам, а не вранью Путина! Факт, что Правительство ведёт Россию к истреблению.
Так как численность населения падает, даже не смотря на приток эмигрантов!
Русская нация вымирает и вырождается, смешиваясь с эмигрантами!
Факт, что военных и граждан предприятий заставляют голосовать за партию Единая Россия и Путина
ПОД СТРАХОМ УВОЛЬНЕНИЯ!
Нам не нужно Правительство, блокирующее личную жизнь, интернет, нарушающее сохранность данных.
Все эти действия финансируются за счёт народа!