Остров потерянных душ / Island of Lost Souls (Эрл С. Кентон / Erle C. Kenton) [1932, США, ужасы, приключения, фантастика, драма, BDRip] VO (den904) + Sub Rus, Eng + Original Eng

Reply to topic
DL-List and Torrent activity
Size:  1.45 GB   |    Registered:  4 years   |    Completed:  0 times

Seeder not seen: Never

 
   
 
 
Author Message

star21 ®

Gender: Female

Longevity: 4 years 1 month

Posts: 551946

Location: Екатеринбург

Post 30-Nov-2015 05:47

[Quote]

Остров потерянных душ / Island of Lost Souls
Страна: США
Жанр: ужасы, приключения, фантастика, драма
Год выпуска: 1932
Продолжительность: 01:10:49
Перевод: Одноголосый закадровый - den904 по субтитрам catbomb
Cубтитры: русские (catbomb), английские, английские (полные)
Оригинальная аудиодорожка: английский

Режиссер: Эрл С. Кентон / Erle C. Kenton
В ролях: Чарльз Лотон, Ричард Арлен, Лейла Хайамс, Бела Лугоши, Кэтлин Бурк, Артур Хол, Стэнли Филдс, Пол Херст, Ганс Стейнке, Тецу Комай
Описание: Малоизвестная в широких кругах экранизация известного романа Герберта Уэллса "Остров доктора Моро".
Главной целью своих опытов Моро ставит изучить до конца пластичность живых организмов, поэтому вот уже десять лет находясь на острове он пытается создать из зверя человека. Создано уже около 60 зверолюдей, начиная от самых маленьких и заканчивая монстрами, чему хочет препятствовать и спасти несчастных Эдвард Паркер, волей случая оказавшийся на острове.
--За русскую дорожку и субтитры спасибо kosmoaelita и videodemons.--Качество видео:
Формат видео: AVI
Видео: 640x480 (1.33:1), 23.976 fps, XviD build 73 ~2350 kbps avg, 0.32 bit/pixel
Аудио: 48 kHz, AC3 Dolby Digital, 2/0 (L,R) ch, ~384 kbps - одноголосый
Аудио: 48 kHz, AC3 Dolby Digital, 1/0 (C) ch, ~192 kbps - оригинал

Сравнение

качество озвучки просто караул. Как и указано в раздаче, переводчик просто читает текс, иногда запрыгивая вперед на 20-30 секунд.
сначала хотел прикрутить его, но потом удалил нафиг.
Видео ещё хуже звука. Пересвеченное в немогу
http://screenshotcomparison.com/comparison/140860

MediaInfo

Общее
Полное имя : H:\Island.of.Lost.Souls.1932.bdrip_[1.46]_[teko]\Island.of.Lost.Souls.1932.bdrip_[1.46].avi
Формат : AVI
Формат/Информация : Audio Video Interleave
Размер файла : 1,45 Гбайт
Продолжительность : 1 ч. 10 м.
Общий поток : 2941 Кбит/сек
Программа кодирования : VirtualDubMod 1.5.10.3 | www.virtualdub-fr.org || (build 2550/release)
Библиотека кодирования : VirtualDubMod build 2550/release
Видео
Идентификатор : 0
Формат : MPEG-4 Visual
Профиль формата : Advanced Simple@L5
Параметр BVOP формата : 1
Параметр QPel формата : Нет
Параметр GMC формата : Без точки перехода
Параметр матрицы формата : Выборочная
Идентификатор кодека : XVID
Идентификатор кодека/Подсказка : XviD
Продолжительность : 1 ч. 10 м.
Битрейт : 2351 Кбит/сек
Ширина : 640 пикселей
Высота : 480 пикселей
Соотношение сторон : 4:3
Частота кадров : 23,976 кадра/сек
Цветовое пространство : YUV
Субдискретизация насыщенности : 4:2:0
Битовая глубина : 8 бит
Тип развёртки : Прогрессивная
Метод сжатия : С потерями
Бит/(Пиксели*Кадры) : 0.319
Размер потока : 1,16 Гбайт (80%)
Библиотека кодирования : XviD 73
Аудио #1
Идентификатор : 1
Формат : AC-3
Формат/Информация : Audio Coding 3
Расширение режима : CM (complete main)
Параметр Endianness формата : Big
Идентификатор кодека : 2000
Продолжительность : 1 ч. 10 м.
Вид битрейта : Постоянный
Битрейт : 384 Кбит/сек
Каналы : 2 канала
Расположение каналов : Front: L R
Частота : 48,0 КГц
Битовая глубина : 16 бит
Метод сжатия : С потерями
Размер потока : 194 Мбайт (13%)
Выравнивание : Разделение по промежуткам
Продолжительность промежутка : 42 мс. (1,00 видеокадр)
Время предзагрузки промежутка : 500 мс.
Аудио #2
Идентификатор : 2
Формат : AC-3
Формат/Информация : Audio Coding 3
Расширение режима : CM (complete main)
Параметр Endianness формата : Big
Идентификатор кодека : 2000
Продолжительность : 1 ч. 10 м.
Вид битрейта : Постоянный
Битрейт : 192 Кбит/сек
Каналы : 1 канал
Расположение каналов : Front: C
Частота : 48,0 КГц
Битовая глубина : 16 бит
Метод сжатия : С потерями
Размер потока : 97,3 Мбайт (7%)
Выравнивание : Разделение по промежуткам
Продолжительность промежутка : 42 мс. (1,00 видеокадр)
Время предзагрузки промежутка : 500 мс.
Релиз группы:
-
-

To download the content you need:
1. Download and install torrent client [for Windows] or for mobile system
2. Click on [Download]
Attention.
If the test YOU are NOT a ROBOT - does not work, then You are using an outdated browser.
Install the current browser and click on [Download]
Security: torrent client is allowed by Kaspersky.

[en.asmlocator.ru].t3859.torrent 
Torrent: Registered [ 2015-11-30 05:45 ] · 480165A4CA0A434C177471ABA80849344AD78911

Download .torrent

Download

15 KB

Status: checked
Completed: 0 times
Size: 1.45 GB
terms.php
[Profile] [PM]
Display posts:    
Reply to topic

Current time is: 12-Dec 04:50

All times are UTC ± 0



You cannot post new topics in this forum
You cannot reply to topics in this forum
You cannot edit your posts in this forum
You cannot delete your posts in this forum
You cannot vote in polls in this forum
You cannot attach files in this forum
You can download files in this forum
Верим фактам, а не вранью Путина! Факт, что Правительство ведёт Россию к истреблению.
Так как численность населения падает, даже не смотря на приток эмигрантов!
Русская нация вымирает и вырождается, смешиваясь с эмигрантами!
Факт, что военных и граждан предприятий заставляют голосовать за партию Единая Россия и Путина
ПОД СТРАХОМ УВОЛЬНЕНИЯ!
Нам не нужно Правительство, блокирующее личную жизнь, интернет, нарушающее сохранность данных.
Все эти действия финансируются за счёт народа!