Муж / Супруг / Il marito (Нанни Лой, Фернандо Палашиос, Джанни Пуччини / Nanni Loy, Fernando Palacios) [1958, Италия, Испания, Комедия, DVDRip] MVO

Reply to topic
DL-List and Torrent activity
Size:  1.35 GB   |    Registered:  4 years   |    Completed:  0 times

Seeder not seen: Never

 
   
 
 
Author Message

star21 ®

Gender: Female

Longevity: 4 years 1 month

Posts: 551946

Location: Екатеринбург

Post 30-Nov-2015 05:47

[Quote]

Муж / Супруг / Il marito
Страна: Италия, Испания
Жанр: Комедия
Год выпуска: 1958
Продолжительность: 01:22:23
Перевод: Профессиональный (многоголосый закадровый)
Cубтитры: нет
Режиссер: Нанни Лой, Фернандо Палашиос, Джанни Пуччини / Nanni Loy, Fernando Palacios
В ролях: , Аврора Баутиста, Луиджи Тоси, Альберто Де Амичис, Карло Нинки, Марчелло Джиорда, Пино Патти, Делия Луна, Розита Писано, Хулия Каба Альба, Чиччо Барби, Селия Муньос, Амос Рамсей, Марио Пассанте, Антонио Фернандез
Описание: Альберто в браке теряет свободу. Его жена Елена - жёсткая женщина и находится под влиянием своей матери и сестры, которые живут с супругами.
В связи с крупными тратами на свадьбу и покупку дома, Альберто начинает испытывать финансовые проблемы и все надежды заработать, возлагает на помощь богатой вдовы...
Доп. информация:
[imdb]http://www.imdb.com/title/tt0050691[/imdb] КиноПоиск
Сэмпл: http://multi-up.com/1064794
Качество видео: DVDRip
Формат видео: AVI
Видео: XviD, 1954 Кбит/с, 704x528, 4:3, 25,000 кадров/сек
Аудио: Русский (AC3, 48,0 КГц, 2 ch, 192 Кбит/с)
Аудио 2: Итальянский (AC3, 48,0 КГц, 2 ch, 192 Кбит/с)

MediaInfo

Формат : AVI
Формат/Информация : Audio Video Interleave
Размер файла : 1,35 Гбайт
Продолжительность : 1 ч. 22 м.
Общий поток : 2354 Кбит/сек
Название фильма : Suprug.1958.XviD.DVDRip.egoleshik
Режиссёр : Nanni Loy, Fernando Palacios, Gianni Puccini
Жанр : Comedy
Программа кодирования : VirtualDubMod 1.5.10.2 (build 2540/release)
Формат оригинала/Имя : Movie
Правообладатель : Rip by egoleshik
Примечание : Thanks gafirst
Видео
Идентификатор : 0
Формат : MPEG-4 Visual
Профиль формата : Advanced Simple@L5
Параметр BVOP формата : 2
Параметр QPel формата : Нет
Параметр GMC формата : Без точки перехода
Параметр матрицы формата : Default (MPEG)
Идентификатор кодека : XVID
Идентификатор кодека/Подсказка : XviD
Продолжительность : 1 ч. 22 м.
Битрейт : 1956 Кбит/сек
Ширина : 704 пикселя
Высота : 528 пикселей
Соотношение сторон : 4:3
Частота кадров : 25,000 кадров/сек
Цветовое пространство : YUV
Субдискретизация насыщенности : 4:2:0
Битовая глубина : 8 бит
Тип развёртки : Прогрессивная
Метод сжатия : С потерями
Бит/(Пиксели*Кадры) : 0.210
Размер потока : 1,13 Гбайт (83%)
Библиотека кодирования : XviD 1.2.1 (UTC 2008-12-04)
Аудио #1
Идентификатор : 1
Формат : AC-3
Формат/Информация : Audio Coding 3
Расширение режима : CM (complete main)
Параметр Endianness формата : Big
Идентификатор кодека : 2000
Продолжительность : 1 ч. 22 м.
Вид битрейта : Постоянный
Битрейт : 192 Кбит/сек
Каналы : 2 канала
Расположение каналов : Front: L R
Частота : 48,0 КГц
Битовая глубина : 16 бит
Метод сжатия : С потерями
Размер потока : 113 Мбайт (8%)
Выравнивание : Разделение по промежуткам
Продолжительность промежутка : 40 мс. (1,00 видеокадр)
Время предзагрузки промежутка : 500 мс.
Аудио #2
Идентификатор : 2
Формат : AC-3
Формат/Информация : Audio Coding 3
Расширение режима : CM (complete main)
Параметр Endianness формата : Big
Идентификатор кодека : 2000
Продолжительность : 1 ч. 22 м.
Вид битрейта : Постоянный
Битрейт : 192 Кбит/сек
Каналы : 2 канала
Расположение каналов : Front: L R
Частота : 48,0 КГц
Битовая глубина : 16 бит
Метод сжатия : С потерями
Размер потока : 113 Мбайт (8%)
Выравнивание : Разделение по промежуткам
Продолжительность промежутка : 40 мс. (1,00 видеокадр)
Время предзагрузки промежутка : 500 мс.

Скриншот c названием фильма

Скриншоты



To download the content you need:
1. Download and install torrent client [for Windows] or for mobile system
2. Click on [Download]
Attention.
If the test YOU are NOT a ROBOT - does not work, then You are using an outdated browser.
Install the current browser and click on [Download]
Security: torrent client is allowed by Kaspersky.

[en.asmlocator.ru].t3850.torrent 
Torrent: Registered [ 2015-11-30 05:45 ] · 94C938476C2A9C381D8156BD2C25687EDC53F328

Download .torrent

Download

28 KB

Status: checked
Completed: 0 times
Size: 1.35 GB
terms.php
[Profile] [PM]
Display posts:    
Reply to topic

Current time is: 08-Dec 09:58

All times are UTC ± 0



You cannot post new topics in this forum
You cannot reply to topics in this forum
You cannot edit your posts in this forum
You cannot delete your posts in this forum
You cannot vote in polls in this forum
You cannot attach files in this forum
You can download files in this forum
Верим фактам, а не вранью Путина! Факт, что Правительство ведёт Россию к истреблению.
Так как численность населения падает, даже не смотря на приток эмигрантов!
Русская нация вымирает и вырождается, смешиваясь с эмигрантами!
Факт, что военных и граждан предприятий заставляют голосовать за партию Единая Россия и Путина
ПОД СТРАХОМ УВОЛЬНЕНИЯ!
Нам не нужно Правительство, блокирующее личную жизнь, интернет, нарушающее сохранность данных.
Все эти действия финансируются за счёт народа!