Татуированная роза / The Rose Tattoo (Дэниел Манн / Daniel Mann) [1955, США, мелодрама, DVDRip] AVO (Либергал)

Reply to topic
DL-List and Torrent activity
Size:  1.46 GB   |    Registered:  4 years 7 months   |    Completed:  0 times

Seeder not seen: Never

 
   
 
 
Author Message

star21 ®

Gender: Female

Longevity: 4 years 8 months

Posts: 551945

Location: Екатеринбург

Post 30-Nov-2015 05:47

[Quote]

Татуированная роза / The Rose Tattoo
Страна: США
Жанр: мелодрама
Год выпуска: 1955
Продолжительность: 01:56:44
Перевод: Авторский (одноголосый закадровый) - Григорий Либергал
Cубтитры: нет

Режиссер: Дэниел Манн / Daniel Mann
В ролях: Анна Маньяни, Берт Ланкастер, Мариса Паван, Бен Купер, Вирджиния Грей, Джо Ван Флит, Сандро Джильо, Мими Агулья, Флоренс Сандстром, Альберт Аткинс
Описание: Мирная тихая жизнь итальянской семьи в штате Луизиана разрушена после того, как водитель грузовика Розарио Делле Роза был убит полицейскими во время попытки провезти контрабанду. У его, по молодости энергичной, вдовы Серафины с годами все чаще не ладится жизнь, с годами она все больше и больше уходит в себя, пытается наставить на путь истинный свою дочь Розу, причем "строит" ее по своему образу и подобию. И вот однажды Роза взрослеет и уходит от нее, Серафина узнает от том, что у ее погибшего мужа когда-то была любовница, а в ее собственную жизнь входит другой статный итальянец - водитель грузовика...
Качество видео:
Формат видео: AVI
Видео: 704x400 (1.76:1), 23.976 fps, XviD build 73 ~1583 kbps avg, 0.23 bit/pixel
Аудио: 48 kHz, AC3 Dolby Digital, 2/0 (L,R) ch, ~192 kbps

Сравнение

разное наполнение кадра
http://screenshotcomparison.com/comparison/140966

MediaInfo

Общее
Полное имя : H:\The.Rose.Tattoo.1955.dvdrip_[1.46]_[teko].avi
Формат : AVI
Формат/Информация : Audio Video Interleave
Размер файла : 1,46 Гбайт
Продолжительность : 1 ч. 56 м.
Общий поток : 1785 Кбит/сек
Программа кодирования : VirtualDubMod 1.5.10.3 | www.virtualdub-fr.org || (build 2550/release)
Библиотека кодирования : VirtualDubMod build 2550/release
Видео
Идентификатор : 0
Формат : MPEG-4 Visual
Профиль формата : Advanced Simple@L5
Параметр BVOP формата : 1
Параметр QPel формата : Нет
Параметр GMC формата : Без точки перехода
Параметр матрицы формата : Выборочная
Идентификатор кодека : XVID
Идентификатор кодека/Подсказка : XviD
Продолжительность : 1 ч. 56 м.
Битрейт : 1583 Кбит/сек
Ширина : 704 пикселя
Высота : 400 пикселей
Соотношение сторон : 16:9
Частота кадров : 23,976 кадра/сек
Цветовое пространство : YUV
Субдискретизация насыщенности : 4:2:0
Битовая глубина : 8 бит
Тип развёртки : Прогрессивная
Метод сжатия : С потерями
Бит/(Пиксели*Кадры) : 0.235
Размер потока : 1,29 Гбайт (89%)
Библиотека кодирования : XviD 73
Аудио
Идентификатор : 1
Формат : AC-3
Формат/Информация : Audio Coding 3
Расширение режима : CM (complete main)
Параметр Endianness формата : Big
Идентификатор кодека : 2000
Продолжительность : 1 ч. 56 м.
Вид битрейта : Постоянный
Битрейт : 192 Кбит/сек
Каналы : 2 канала
Расположение каналов : Front: L R
Частота : 48,0 КГц
Битовая глубина : 16 бит
Метод сжатия : С потерями
Размер потока : 160 Мбайт (11%)
Выравнивание : Разделение по промежуткам
Продолжительность промежутка : 42 мс. (1,00 видеокадр)
Время предзагрузки промежутка : 500 мс.
Релиз группы:
-
-

To download the content you need:
1. Download and install torrent client [for Windows] or for mobile system
2. Click on [Download]
Attention.
If the test YOU are NOT a ROBOT - does not work, then You are using an outdated browser.
Install the current browser and click on [Download]

Do not work with Yandex browser. Uploading files to them is erroneous.
Security: torrent client is allowed by Kaspersky.

[en.asmlocator.ru].t3849.torrent 
Torrent: Registered [ 2015-11-30 05:45 ] · 7AE51CB7D68777872F8223A6C166D57C32B65062

Download .torrent

Download

15 KB

Status: checked
Completed: 0 times
Size: 1.46 GB
terms.php
[Profile] [PM]
Display posts:    
Reply to topic

Current time is: 13-Jul 00:34

All times are UTC ± 0



You cannot post new topics in this forum
You cannot reply to topics in this forum
You cannot edit your posts in this forum
You cannot delete your posts in this forum
You cannot vote in polls in this forum
You cannot attach files in this forum
You can download files in this forum
Верим фактам, а не вранью Путина! Факт, что Правительство ведёт Россию к истреблению.
Так как численность населения падает, даже не смотря на приток эмигрантов!
Русская нация вымирает и вырождается, смешиваясь с эмигрантами!
Факт, что военных и граждан предприятий заставляют голосовать за партию Единая Россия и Путина
ПОД СТРАХОМ УВОЛЬНЕНИЯ!
Нам не нужно Правительство, блокирующее личную жизнь, интернет, нарушающее сохранность данных.
Все эти действия финансируются за счёт народа!