Избранник мадам Юссон / Le rosier de Madame Husson (Жан Буайе / Jean Boyer) [1950, Франция, комедия, DVDRip] Sub Rus (Lisok) + Original Fre

Reply to topic
DL-List and Torrent activity
Size:  1.36 GB   |    Registered:  4 years 7 months   |    Completed:  0 times

Seeder not seen: Never

 
   
 
 
Author Message

star21 ®

Gender: Female

Longevity: 4 years 8 months

Posts: 551945

Location: Екатеринбург

Post 30-Nov-2015 05:47

[Quote]

Избранник мадам Юссон / Le rosier de Madame Husson
Страна: Франция
Жанр: комедия
Год выпуска: 1950
Продолжительность: 01:27:12
Перевод: Субтитры -
Cубтитры: русские
Оригинальная аудиодорожка: французский
Режиссер: Жан Буайе / Jean Boyer
В ролях: Бурвиль, Жаклин Паньоль, Мирей Перре, Полин Картон, Анри Вильбер, Jeanne Véniat, Альберт Дувалекс, Germaine Reuver, Жан Дюно, Nina Myral ...
Описание: Однажды госпожу Юссон, набожную и добродетельную даму, озабоченную воцарившейся в обществе безнравственностью, осенило: городку необходим пример для подражания – целомудренная девушка, воплощение безгрешности и послушания. Аббат Малу и местная знать во главе с мэром, решив, что избранница принесет славу городу, одобрили идею. Но поиски претендентки закончились плачевно – у каждой из юных жительниц нашелся хоть какой-то изъян. Зато высоким моральным требованиям соответствовал сын торговки Изидор, робкий юноша, болезненно боявшийся женщин…
Доп. информация: Рип сделан из DVD9 найденного в сети. (Который на постере)--Особая благодарность за перевод фильма и создание рус. субтитров © -- [imdb]http://www.imdb.com/title/tt0136500[/imdb]--Le rosier de Madame Husson (1950)_DVDRip_Sample_.avi--Экранизация по одноименному роману:
"Le Rosier de Madame Husson / Избранник госпожи Гюссон" (1887) - Guy de Maupassant / Ги де Мопассан
--Качество видео: DVDRip
Формат видео: AVI
Видео: 688x528 (1.30:1), 25 fps, XviD build 50 ~2033 kbps avg, 0.22 bit/pixel
Аудио: 48 kHz, AC3 Dolby Digital, 2/0 (L,R) ch, ~192 kbps, французский
Формат субтитров: softsub (SRT)

AviInfo

File: Le rosier de Madame Husson (1950)_DVDRip_.avi
Title: Le rosier de Madame Husson (1950)
Copyleft: Ripped_by_rjhlb777
Genre: Comedy
Category: Movie
Comment: Original Fre
FileSize: 1394.33 Mb ( 1 462 056 960 bytes )
Play length: 01:27:12.000 (130800 frames)
Subtitles: RUS_(Lisok)_ (SubRip format)
Video: 688x528 (1.30:1), 25 fps, XviD build 50 ~2033 kbps avg, 0.22 bit/pixel
Audio: 48 kHz, AC3 Dolby Digital, 2/0 (L,R) ch, ~192 kbps

MediaInfo

General
Complete name : C:\Temp\_RELEASES_\Le rosier de Madame Husson (1950)_DVDRip_\Le rosier de Madame Husson (1950)_DVDRip_.avi
Format : AVI
Format/Info : Audio Video Interleave
File size : 1.36 GiB
Duration : 1h 27mn
Overall bit rate : 2 236 Kbps
Movie name : Le rosier de Madame Husson (1950)
Genre : Comedy
Writing application : VirtualDubMod 1.5.10.3 | www.virtualdub-fr.org || (build 2550/release)
Original source form/Name : Movie
Copyright : Ripped_by_rjhlb777
Comment : Original Fre
Video
ID : 0
Format : MPEG-4 Visual
Format profile : Advanced Simple@L5
Format settings, BVOP : 1
Format settings, QPel : No
Format settings, GMC : No warppoints
Format settings, Matrix : Default (MPEG)
Codec ID : XVID
Codec ID/Hint : XviD
Duration : 1h 27mn
Bit rate : 2 034 Kbps
Width : 688 pixels
Height : 528 pixels
Display aspect ratio : 4:3
Frame rate : 25.000 fps
Color space : YUV
Chroma subsampling : 4:2:0
Bit depth : 8 bits
Scan type : Progressive
Compression mode : Lossy
Bits/(Pixel*Frame) : 0.224
Stream size : 1.24 GiB (91%)
Writing library : XviD 1.2.1 (UTC 2008-12-04)
Audio
ID : 1
Format : AC-3
Format/Info : Audio Coding 3
Mode extension : CM (complete main)
Format settings, Endianness : Big
Codec ID : 2000
Duration : 1h 27mn
Bit rate mode : Constant
Bit rate : 192 Kbps
Channel(s) : 2 channels
Channel positions : Front: L R
Sampling rate : 48.0 KHz
Compression mode : Lossy
Stream size : 120 MiB (9%)
Alignment : Split accross interleaves
Interleave, duration : 40 ms (1.00 video frame)
Interleave, preload duratio : 500 ms

Пример субтитров

1
00:00:00,120 --> 00:00:03,120
БУРВИЛЬ
2
00:00:03,840 --> 00:00:08,120
"ИЗБРАННИК МАДАМ ЮССОН"
3
00:00:08,180 --> 00:00:11,740
по рассказу ГИ ДЕ МОПАССАНА
4
00:00:12,020 --> 00:00:16,540
Новая адаптация и диалоги:
МАРСЕЛЬ ПАНЬОЛЬ
5
00:00:17,560 --> 00:00:20,740
Режиссёр:
ЖАН БУАЙЕ
6
00:00:21,220 --> 00:00:24,520
Композитор: ПОЛЬ МИЗРАКИ
Песня: ЭТЬЕНН ЛОРЕН
7
00:00:25,200 --> 00:00:27,980
В ролях:
ЖАКЛИН ПАНЬОЛЬ
8
00:00:28,800 --> 00:00:31,680
и МИРЕЙ ПЕРРЕ
9
00:00:31,920 --> 00:00:34,980
ПОЛИН КАРТОН
ВИЛЬБЕР
10
00:00:34,980 --> 00:00:37,680
и другие
11
00:00:51,800 --> 00:00:54,860
ЖЕРМЕН ДЕРМО
(в роли госпожи Юссон)
12
00:01:27,760 --> 00:01:30,980
Директор картины:
ЖАН ДАРВЕ
13
00:02:55,400 --> 00:02:57,700
Вот так так! И что ты делаешь?
14
00:02:57,760 --> 00:03:00,020
Иду за покупками для мамы.
15
00:03:00,120 --> 00:03:02,180
Иду за курами к Николине.
16
00:03:02,260 --> 00:03:05,140
- А букет цветов - это мне?
- О, нет!
17
00:03:05,220 --> 00:03:07,840
Если тебе надо,
сама себе нарви.
18
00:03:07,900 --> 00:03:09,980
- Изидор, Изидор!
- Да?
19
00:03:10,060 --> 00:03:12,980
- Подойди поближе, и я тебя поцелую!
- Ничего себе!
20
00:03:13,060 --> 00:03:15,760
- Не хочешь, чтобы я тебя поцеловала?
- Ты с ума сошла!
21
00:03:15,820 --> 00:03:18,660
О, нет!
Какая бесстыдница!
22
00:03:19,400 --> 00:03:22,100
Помогите! Спасите!
23
00:03:22,740 --> 00:03:25,000
Хватит! Нет!
24
00:03:38,600 --> 00:03:42,340
Мари только что была дома.
Не знаю, куда она делась.
25
00:03:42,520 --> 00:03:44,720
Может, моя жена знает.
26
00:03:44,800 --> 00:03:46,260
Эй, Николина!
27
00:03:46,420 --> 00:03:49,840
Где Мари?
Её хочет видеть мадам Юссон.
28
00:03:52,160 --> 00:03:55,000
- Здравствуйте, мадам Юссон!
- Здравствуйте.
29
00:03:55,100 --> 00:03:57,940
- Где Мари? Её нет дома.
- Мари? Ты что, не видишь тележку?
30
00:03:58,060 --> 00:04:01,920
- При чём тут Мари и тележка?
- Это Изидор, сын бакалейщицы.
31
00:04:01,980 --> 00:04:03,910
Пришёл за овощами и курами.
32
00:04:03,960 --> 00:04:06,300
Мари помогает ему
выбирать птицу.
33
00:04:06,340 --> 00:04:10,340
А вы чего бы хотели, мадам Юссон?
Свежих яиц или овощей?

-
-
-

Коврик

To download the content you need:
1. Download and install torrent client [for Windows] or for mobile system
2. Click on [Download]
Attention.
If the test YOU are NOT a ROBOT - does not work, then You are using an outdated browser.
Install the current browser and click on [Download]

Do not work with Yandex browser. Uploading files to them is erroneous.
Security: torrent client is allowed by Kaspersky.

[en.asmlocator.ru].t3848.torrent 
Torrent: Registered [ 2015-11-30 05:45 ] · 7FFBF0271213D3A0DBE875592F1CB80159F328B7

Download .torrent

Download

14 KB

Status: checked
Completed: 0 times
Size: 1.36 GB
terms.php
[Profile] [PM]
Display posts:    
Reply to topic

Current time is: 12-Jul 15:44

All times are UTC ± 0



You cannot post new topics in this forum
You cannot reply to topics in this forum
You cannot edit your posts in this forum
You cannot delete your posts in this forum
You cannot vote in polls in this forum
You cannot attach files in this forum
You can download files in this forum
Верим фактам, а не вранью Путина! Факт, что Правительство ведёт Россию к истреблению.
Так как численность населения падает, даже не смотря на приток эмигрантов!
Русская нация вымирает и вырождается, смешиваясь с эмигрантами!
Факт, что военных и граждан предприятий заставляют голосовать за партию Единая Россия и Путина
ПОД СТРАХОМ УВОЛЬНЕНИЯ!
Нам не нужно Правительство, блокирующее личную жизнь, интернет, нарушающее сохранность данных.
Все эти действия финансируются за счёт народа!