Воздушные приключения / Those Magnificent Men in Their Flying Machines or How I Flew from London to Paris in 25 hours 11 minutes (Кен Эннакин / Ken Annakin) [1965, Великобритания, комедия, приключения, HDRip-AVC] Dub (Советский дубляж) + Sub Eng

Reply to topic
DL-List and Torrent activity
Size:  2.19 GB   |    Registered:  4 years   |    Completed:  1 time

Seeder not seen: 9 months 14 days

 
   
 
 
Author Message

star21 ®

Gender: Female

Longevity: 4 years 1 month

Posts: 551946

Location: Екатеринбург

Post 30-Nov-2015 05:47

[Quote]

Воздушные приключения / Those Magnificent Men in Their Flying Machines or How I Flew from London to Paris in 25 hours 11 minutes
Страна: Великобритания
Жанр: комедия, приключения
Год выпуска: 1965
Продолжительность: 02:18:02
Перевод: Профессиональный (дублированный) Советский дубляж
Cубтитры: английские
Режиссер: Кен Эннакин / Ken Annakin
В ролях: Стюарт Уитман, Сара Майлз, Джеймс Фокс, Альберто Сорди, Роберт Морли, Герт Фрёбе, Жан-Пьер Кассель, Ирина Демик, Эрик Сайкс, Ред Скелтон и др.
Роли дублировали: Феликс Яворский, Надежда Румянцева, Вячеслав Тихонов, Артем Карапетян, Сергей Цейц, Евгений Весник, Александр Белявский, Николай Граббе, Зиновий Гердт и др.
Описание: 1910. Газетный магнат лорд Ронслей, желая доказать, что Великобритания N 1 не только на море, но и в воздухе, назначает приз в 10 тысяч фунтов тому, кто выиграет авиагонку через Ла-Манш, организованную газетой «Daily Post». В борьбу за приз вступают американский ковбой Орвил Ньютон вместе с дочерью лорда Патрисией, бравый лейтенант британских военно-воздушных сил и жених Патрисии Ричард Мейс, злодей-англичанин сэр Персивал Уэр-Эрмитаж, вечно влюбленный француз Пьер Дюбуа, фанатичный немецкий полковник фон Гольштейн, итальянский граф Эмилио Понтичелли и японский военный пилот Ямамото...
Доп. информация: [imdb]http://www.imdb.com/title/tt0059797[/imdb] КиноПоиск
Сохранена оригинальная навигация по главам фильма
Сэмпл: http://multi-up.com/1064852
Качество видео: HDRip-AVC
Формат видео: MKV
Видео: 1024x464 (2,2:1), 23,976 fps, H264 ~ 2173 kbps avg, 0.191 bit/pixel
Аудио: 48 kHz, AC3, 2 ch, 192.00 kbps русский
Формат субтитров: softsub (SRT)

MediaInfo

Формат : Matroska
Версия формата : Version 4 / Version 2
Размер файла : 2,19 Гбайт
Продолжительность : 2 ч. 17 м.
Общий поток : 2272 Кбит/сек
Название фильма : Vozdushnye.prikljuchenija.1965.HDRip-AVC_[Youtracker]_by_AVP Studio
Дата кодирования : UTC 2013-04-25 11:35:46
Программа кодирования : mkvmerge v6.1.0 ('Old Devil') built on Mar 2 2013 14:32:37
Библиотека кодирования : libebml v1.3.0 + libmatroska v1.4.0
Видео
Идентификатор : 1
Формат : AVC
Формат/Информация : Advanced Video Codec
Профиль формата : High@L4.1
Параметр CABAC формата : Да
Параметр ReFrames формата : 11 кадров
Идентификатор кодека : V_MPEG4/ISO/AVC
Продолжительность : 2 ч. 17 м.
Битрейт : 2034 Кбит/сек
Номинальный битрейт : 2173 Кбит/сек
Ширина : 1024 пикселя
Высота : 464 пикселя
Соотношение сторон : 2,2:1
Режим частоты кадров : Постоянный
Частота кадров : 23,976 кадра/сек
Цветовое пространство : YUV
Субдискретизация насыщенности : 4:2:0
Битовая глубина : 8 бит
Тип развёртки : Прогрессивная
Бит/(Пиксели*Кадры) : 0.179
Размер потока : 1,96 Гбайт (90%)
Заголовок : Источник BDRip 1080p
Библиотека кодирования : x264 core 119 r2106 07efeb4
Настройки программы : cabac=1 / ref=11 / deblock=1:-3:-2 / analyse=0x3:0x113 / me=umh / subme=9 / psy=1 / psy_rd=1.00:0.10 / mixed_ref=1 / me_range=32 / chroma_me=1 / trellis=1 / 8x8dct=1 / cqm=0 / deadzone=21,11 / fast_pskip=0 / chroma_qp_offset=-3 / threads=3 / sliced_threads=0 / nr=0 / decimate=1 / interlaced=0 / bluray_compat=0 / constrained_intra=0 / bframes=10 / b_pyramid=2 / b_adapt=1 / b_bias=0 / direct=3 / weightb=1 / open_gop=0 / weightp=2 / keyint=240 / keyint_min=23 / scenecut=40 / intra_refresh=0 / rc_lookahead=60 / rc=2pass / mbtree=1 / bitrate=2173 / ratetol=1.0 / qcomp=0.60 / qpmin=0 / qpmax=69 / qpstep=4 / cplxblur=20.0 / qblur=0.5 / ip_ratio=1.40 / aq=1:1.00
Язык : English
Default : Да
Forced : Нет
Аудио
Идентификатор : 2
Формат : AC-3
Формат/Информация : Audio Coding 3
Расширение режима : CM (complete main)
Параметр Endianness формата : Big
Идентификатор кодека : A_AC3
Продолжительность : 2 ч. 17 м.
Вид битрейта : Постоянный
Битрейт : 192 Кбит/сек
Каналы : 2 канала
Расположение каналов : Front: L R
Частота : 48,0 КГц
Битовая глубина : 16 бит
Метод сжатия : С потерями
Задержка видео : 20 мс.
Размер потока : 190 Мбайт (8%)
Заголовок : Источник BDRip 1080p
Язык : Russian
Default : Да
Forced : Нет
Текст
Идентификатор : 3
Формат : VobSub
Режим смешивания : zlib
Идентификатор кодека : S_VOBSUB
Идентификатор кодека/Информация : The same subtitle format used on DVDs
Заголовок : субтитры английские
Язык : English
Default : Нет
Forced : Нет
Меню
00:00:00.000 : en:Ever Hopeful/ Main Titles
00:06:18.067 : en:Just Like a Girl
00:10:15.567 : en:To Rule the Sky
00:15:26.567 : en:The Whole World
00:24:33.067 : en:Improper Introduction
00:27:21.401 : en:No Time
00:29:15.235 : en:The Field
00:34:06.936 : en:Extra Load
00:39:59.570 : en:A Monkey Wrench
00:46:42.904 : en:Runaway Plane
00:54:23.304 : en:Sweet Talk
00:56:44.971 : en:The White Cliffs
01:04:02.638 : en:Old-Fashioned Challenge
01:06:09.138 : en:First Flight
01:11:05.972 : en:Scratched
01:14:19.306 : en:Innovations
01:15:59.973 : en:The Duel
01:19:05.440 : en:Rivalries
01:23:33.707 : en:The Big Day
01:30:00.840 : en:They're Off!
01:34:26.741 : en:A Couple of Snags
01:41:33.241 : en:First Check Point
01:45:17.975 : en:Crossing the Channel
01:54:00.309 : en:The Third Leg
02:01:55.309 : en:Gay Paree
02:04:28.143 : en:Fifty-Fifty
02:07:33.111 : en:Full Circle/ End Titles

Скриншот c названием фильма

Скриншоты






To download the content you need:
1. Download and install torrent client [for Windows] or for mobile system
2. Click on [Download]
Attention.
If the test YOU are NOT a ROBOT - does not work, then You are using an outdated browser.
Install the current browser and click on [Download]
Security: torrent client is allowed by Kaspersky.

[en.asmlocator.ru].t3847.torrent 
Torrent: Registered [ 2015-11-30 05:45 ] · 09A5287A153C40EE9ECBCB0DC2607EA570A68041

Download .torrent

Download

22 KB

Status: checked
Completed: 1 times
Size: 2.19 GB
terms.php
[Profile] [PM]
Display posts:    
Reply to topic

Current time is: 09-Dec 05:08

All times are UTC ± 0



You cannot post new topics in this forum
You cannot reply to topics in this forum
You cannot edit your posts in this forum
You cannot delete your posts in this forum
You cannot vote in polls in this forum
You cannot attach files in this forum
You can download files in this forum
Верим фактам, а не вранью Путина! Факт, что Правительство ведёт Россию к истреблению.
Так как численность населения падает, даже не смотря на приток эмигрантов!
Русская нация вымирает и вырождается, смешиваясь с эмигрантами!
Факт, что военных и граждан предприятий заставляют голосовать за партию Единая Россия и Путина
ПОД СТРАХОМ УВОЛЬНЕНИЯ!
Нам не нужно Правительство, блокирующее личную жизнь, интернет, нарушающее сохранность данных.
Все эти действия финансируются за счёт народа!