Кто хочет убить Джесси? / Kdo chce zabít Jessii? (Вацлав Ворличек / Václav Vorlícek) [1966, Чехословакия, фантастика, комедия, DVDRip] VO + Sub Rus + Original Cze

Reply to topic
DL-List and Torrent activity
Size:  1.46 GB   |    Registered:  4 years 3 months   |    Completed:  0 times

Seeder not seen: Never

 
   
 
 
Author Message

star21 ®

Gender: Female

Longevity: 4 years 4 months

Posts: 551945

Location: Екатеринбург

Post 30-Nov-2015 05:47

[Quote]

Кто хочет убить Джесси? / Kdo chce zabít Jessii?
Страна: Чехословакия
Жанр: фантастика, комедия
Год выпуска: 1966
Продолжительность: 01:19:01
Перевод: Одноголосый закадровый
Cубтитры: русские
Оригинальная аудиодорожка: чешский
Режиссер: Вацлав Ворличек /Václav Vorlícek
В ролях: Дана Медржицка, Иржи Совак, Ольга Шоберова, Карел Эффа, Владимир Меншик, Карел Гоуска, Илья Рацек, Вальтер Тауб, Бедрич Прокош
Описание: Немолодая супружеская пара научных сотрудников, как обычно по четвергам, ложатся спать вместе. Она только что блестяще защитила новейший препарат по корекции сновидений, а он озабочен созданием устройства для поднятий тяжелых грузов и идею которого, он случайно находит в комиксе с очеровательнно-рисованой блондинкой Джесси на обложке. Мысли о гравитационной перчатке, описанной в комиксе, и о ее обладательнице Джесси, не покидают его и во сне.
Заметив это, супруга подключает к нему прибор трансляции снов, и обнаружив на экране ту самую блондинку, решает применить на муже новоиспеченный препарат… Однако как обнаружилось, у него есть побочный эфект — материализация сновидений.. Далее ожившие герои и злодеи комиксов со всеми своими сверхспособностями, будоражат спокойную и размеренную Прагу…
Сэмпл: http://multi-up.com/1064872

Качество видео: DVDRip -
Формат видео: AVI
Видео: 704x304 (2.32:1), 25 fps, XviD, 2243 kbps, 0.42 bit/pixel
Аудио 1: 48 kHz, AC3 Dolby Digital, 2/0 (L,R) ch, 192 kbps, VO (Женский)
Аудио 2: 48 kHz, AC3 Dolby Digital, 2/0 (L,R) ch, 192 kbps, Original (Cze)

MediaInfo

General
Complete name : E:\Раздачи\rutracker.org\Kto_hochet_ubit_Dzhessi_1.46_by_max1wq\Kto_hochet_ubit_Dzhessi_1.46_by_max1wq.avi
Format : AVI
Format/Info : Audio Video Interleave
File size : 1.46 GiB
Duration : 1h 19mn
Overall bit rate : 2 643 Kbps
Writing application : VirtualDubMod 1.5.10.2 (build 2540/release)
Writing library : VirtualDubMod build 2540/release
Video
ID : 0
Format : MPEG-4 Visual
Format profile : Advanced Simple@L5
Format settings, BVOP : 1
Format settings, QPel : No
Format settings, GMC : No warppoints
Format settings, Matrix : Custom
Codec ID : XVID
Codec ID/Hint : XviD
Duration : 1h 19mn
Bit rate : 2 244 Kbps
Width : 704 pixels
Height : 304 pixels
Display aspect ratio : 2.35:1
Frame rate : 25.000 fps
Color space : YUV
Chroma subsampling : 4:2:0
Bit depth : 8 bits
Scan type : Progressive
Compression mode : Lossy
Bits/(Pixel*Frame) : 0.420
Stream size : 1.24 GiB (85%)
Writing library : XviD 73
Audio #1
ID : 1
Format : AC-3
Format/Info : Audio Coding 3
Mode extension : CM (complete main)
Format settings, Endianness : Big
Codec ID : 2000
Duration : 1h 19mn
Bit rate mode : Constant
Bit rate : 192 Kbps
Channel(s) : 2 channels
Channel positions : Front: L R
Sampling rate : 48.0 KHz
Compression mode : Lossy
Stream size : 109 MiB (7%)
Alignment : Split accross interleaves
Interleave, duration : 40 ms (1.00 video frame)
Interleave, preload duration : 500 ms
Audio #2
ID : 2
Format : AC-3
Format/Info : Audio Coding 3
Mode extension : CM (complete main)
Format settings, Endianness : Big
Codec ID : 2000
Duration : 1h 19mn
Bit rate mode : Constant
Bit rate : 192 Kbps
Channel(s) : 2 channels
Channel positions : Front: L R
Sampling rate : 48.0 KHz
Compression mode : Lossy
Stream size : 109 MiB (7%)
Alignment : Split accross interleaves
Interleave, duration : 40 ms (1.00 video frame)
Interleave, preload duration : 500 ms
General
Complete name : E:\Раздачи\rutracker.org\Kto_hochet_ubit_Dzhessi_1.46_by_max1wq\Kto_hochet_ubit_Dzhessi_1.46_by_max1wq.srt
Format : SubRip
File size : 52.0 KiB
Text
Format : SubRip
Compression mode : Lossless

Скриншоты



Часть текста субтитров

128
00:10:23,600 --> 00:10:26,114
Препарат подействовал.
129
00:10:27,760 --> 00:10:29,239
Мухи исчезли.
130
00:10:32,760 --> 00:10:34,318
Поправьте, пожалуйста!
131
00:10:39,120 --> 00:10:40,633
Господин Кольбаба, свет!
132
00:10:47,560 --> 00:10:51,269
Причиняющий беспокойство элемент
сна был эффективно устранён.
133
00:10:51,720 --> 00:10:54,871
Его заменило идиллическое спокойствие.
134
00:10:54,960 --> 00:10:58,077
Этот феномен я назвала сомниокоррекцией.
135
00:11:15,520 --> 00:11:20,071
Дамы и господа!
Сомниология, наука о снах,
136
00:11:20,840 --> 00:11:25,356
сейчас развилась до такой стадии, что мы
стали способны избавлять пациентов
137
00:11:25,560 --> 00:11:30,236
от нежелательных снов и заменять их
благотворно влияющими на
138
00:11:30,400 --> 00:11:34,791
психологическую стабильность и
производительность труда сновидца.
139
00:11:41,040 --> 00:11:44,715
Спасибо. Перейдём к обсуждению.
140
00:11:45,320 --> 00:11:47,788
У кого есть... Прошу!
141
00:11:48,440 --> 00:11:52,035
Прежде всего, я хочу поздравить коллегу.
142
00:11:52,120 --> 00:11:54,918
Важность её открытия трудно переоценить.

To download the content you need:
1. Download and install torrent client [for Windows] or for mobile system
2. Click on [Download]
Attention.
If the test YOU are NOT a ROBOT - does not work, then You are using an outdated browser.
Install the current browser and click on [Download]

Do not work with Yandex browser. Uploading files to them is erroneous.
Security: torrent client is allowed by Kaspersky.

[en.asmlocator.ru].t3846.torrent 
Torrent: Registered [ 2015-11-30 05:45 ] · 720ED6D61901B0EEC0199E63E7D1AD9597B11654

Download .torrent

Download

15 KB

Status: checked
Completed: 0 times
Size: 1.46 GB
terms.php
[Profile] [PM]
Display posts:    
Reply to topic

Current time is: 29-Mar 00:31

All times are UTC ± 0



You cannot post new topics in this forum
You cannot reply to topics in this forum
You cannot edit your posts in this forum
You cannot delete your posts in this forum
You cannot vote in polls in this forum
You cannot attach files in this forum
You can download files in this forum
Верим фактам, а не вранью Путина! Факт, что Правительство ведёт Россию к истреблению.
Так как численность населения падает, даже не смотря на приток эмигрантов!
Русская нация вымирает и вырождается, смешиваясь с эмигрантами!
Факт, что военных и граждан предприятий заставляют голосовать за партию Единая Россия и Путина
ПОД СТРАХОМ УВОЛЬНЕНИЯ!
Нам не нужно Правительство, блокирующее личную жизнь, интернет, нарушающее сохранность данных.
Все эти действия финансируются за счёт народа!