Совет и согласие / Advise & Consent (Отто Преминджер / Otto Preminger) [1962, США, драма, DVDRip] AVO (Кузнецов) + Original Eng

Reply to topic
DL-List and Torrent activity
Size:  1.64 GB   |    Registered:  4 years   |    Completed:  0 times

Seeder not seen: Never

 
   
 
 
Author Message

star21 ®

Gender: Female

Longevity: 4 years 1 month

Posts: 551946

Location: Екатеринбург

Post 30-Nov-2015 05:46

[Quote]

Совет и согласие / Advise & Consent
Страна: США
Жанр: драма
Год выпуска: 1962
Продолжительность: 02:17:58
Перевод: Авторский (одноголосый закадровый) - Сергей Кузнецов
Cубтитры: нет
Оригинальная аудиодорожка: английский

Режиссер: Отто Преминджер / Otto Preminger
В ролях: Франшо Тоун, Лью Эйрз, Генри Фонда, Уолтер Пиджон, Чарльз Лотон, Дон Мюррэй, Питер Лоуфорд, Джин Тирни, Бёрджесс Мередит, Эдди Ходжес
Описание: Роберт Леффингуэлл кандидат на пост государственного секретаря. В Сенате по его персоне нет единодушия. Сторонники Леффингуэлла пытаются протолкнуть назначение, но и среди них нет согласия - молодой сенатор Брингэм Андерсон, чей голос чрезвычайно важен, не хочет поддержать лидера своей партии. Это приводит к тому, что сенатор Фред ван Аккерман, беспощадный, рвущийся к власти коллега, начинает шантажировать Андерсона. Он находит доказательства гомосексуализма Андерсона и угрожает их обнародовать в прессе, если тот не проголосует «правильно». Это неожиданно приводит к самым трагическим последствиям…
Качество видео:
Формат видео: AVI
Видео: 720x304 (2.37:1), 23.976 fps, XviD build 73 ~1311 kbps avg, 0.25 bit/pixel
Аудио: 48 kHz, AC3 Dolby Digital, 2/0 (L,R) ch, ~192 kbps - авторский
Аудио: 48 kHz, AC3 Dolby Digital, 2/0 (L,R) ch, ~192 kbps - оригинал (отдельным файлом)

MediaInfo

Общее
Полное имя : H:\Advise.&.Consent.1962.dvdrip_[1.46]_[teko]\Advise.&.Consent.1962.dvdrip_[1.46].avi
Формат : AVI
Формат/Информация : Audio Video Interleave
Размер файла : 1,46 Гбайт
Продолжительность : 2 ч. 17 м.
Общий поток : 1513 Кбит/сек
Программа кодирования : VirtualDubMod 1.5.10.3 | www.virtualdub-fr.org || (build 2550/release)
Библиотека кодирования : VirtualDubMod build 2550/release
Видео
Идентификатор : 0
Формат : MPEG-4 Visual
Профиль формата : Advanced Simple@L5
Параметр BVOP формата : 1
Параметр QPel формата : Нет
Параметр GMC формата : Без точки перехода
Параметр матрицы формата : Выборочная
Идентификатор кодека : XVID
Идентификатор кодека/Подсказка : XviD
Продолжительность : 2 ч. 17 м.
Битрейт : 1312 Кбит/сек
Ширина : 720 пикселей
Высота : 304 пикселя
Соотношение сторон : 2,35:1
Частота кадров : 23,976 кадра/сек
Цветовое пространство : YUV
Субдискретизация насыщенности : 4:2:0
Битовая глубина : 8 бит
Тип развёртки : Прогрессивная
Метод сжатия : С потерями
Бит/(Пиксели*Кадры) : 0.250
Размер потока : 1,26 Гбайт (87%)
Библиотека кодирования : XviD 73
Аудио
Идентификатор : 1
Формат : AC-3
Формат/Информация : Audio Coding 3
Расширение режима : CM (complete main)
Параметр Endianness формата : Big
Идентификатор кодека : 2000
Продолжительность : 2 ч. 17 м.
Вид битрейта : Постоянный
Битрейт : 192 Кбит/сек
Каналы : 2 канала
Расположение каналов : Front: L R
Частота : 48,0 КГц
Битовая глубина : 16 бит
Метод сжатия : С потерями
Задержка видео : 700 мс.
Размер потока : 189 Мбайт (13%)
Выравнивание : Разделение по промежуткам
Продолжительность промежутка : 42 мс. (1,00 видеокадр)
Время предзагрузки промежутка : 500 мс.
Релиз группы:
-
-

To download the content you need:
1. Download and install torrent client [for Windows] or for mobile system
2. Click on [Download]
Attention.
If the test YOU are NOT a ROBOT - does not work, then You are using an outdated browser.
Install the current browser and click on [Download]
Security: torrent client is allowed by Kaspersky.

[en.asmlocator.ru].t3845.torrent 
Torrent: Registered [ 2015-11-30 05:45 ] · 76190F34C365D9269E2E89EC3FB78504C0E0A5E6

Download .torrent

Download

17 KB

Status: checked
Completed: 0 times
Size: 1.64 GB
terms.php
[Profile] [PM]
Display posts:    
Reply to topic

Current time is: 08-Dec 09:58

All times are UTC ± 0



You cannot post new topics in this forum
You cannot reply to topics in this forum
You cannot edit your posts in this forum
You cannot delete your posts in this forum
You cannot vote in polls in this forum
You cannot attach files in this forum
You can download files in this forum
Верим фактам, а не вранью Путина! Факт, что Правительство ведёт Россию к истреблению.
Так как численность населения падает, даже не смотря на приток эмигрантов!
Русская нация вымирает и вырождается, смешиваясь с эмигрантами!
Факт, что военных и граждан предприятий заставляют голосовать за партию Единая Россия и Путина
ПОД СТРАХОМ УВОЛЬНЕНИЯ!
Нам не нужно Правительство, блокирующее личную жизнь, интернет, нарушающее сохранность данных.
Все эти действия финансируются за счёт народа!