Сатирикон / Satyricon (Джан Луиджи Полидоро / Gian Luigi Polidoro) [1968, Италия, Трагикомедия, VHSRip] [Цензурированная версия] VO (Urasiko) + Sub Rus + Original Ita

Reply to topic
DL-List and Torrent activity
Size:  1.32 GB   |    Registered:  4 years   |    Completed:  0 times

Seeder not seen: 2 years 5 months

 
   
 
 
Author Message

star21 ®

Gender: Female

Longevity: 4 years 1 month

Posts: 551946

Location: Екатеринбург

Post 30-Nov-2015 05:46

[Quote]

Сатирикон / Satyricon / Цензурированная версия
Страна: Италия
Жанр: Трагикомедия
Год выпуска: 1968
Продолжительность: 01:47:42
Перевод: Одноголосый закадровый Urasiko
Cубтитры: русские Martin01634
Оригинальная аудиодорожка: итальянский
Режиссер: Джан Луиджи Полидоро / Gian Luigi Polidoro
В ролях: Уго Тоньяцци, Тина Омон, Дон Бэки, Марио Каротенуто, Франко Фабрици, Грациэлла Граната, Валери Лагранж, Франческо Пау
Описание: Экранизация романа Петрония Арбитра, которую мало кто видел, но о которой слышал почти каждый, кто смотрел Сатирикон Феллини.
Сразу предупреждаю, фильм порезан цензорами совершенно безобразно. Качество картинки и звука тоже паршивое. Но если кто-то захочет ознакомиться с "альтернативной" версией Сатирикона и сравнить ее с шедевром Феллини, то другого варианта, насколько мне известно, нет. И, судя по всему, вряд ли будет. Фильм очень редкий.
Альтернативное название, под которым картина шла в международном прокате, - The Degenerates.
Информации об этом фильме очень мало. Даже на таких ресурсах как imdb или kinopoisk ее практически нет, а та что есть представлена в искаженном виде (так как фильм постоянно путают с фильмом Феллини).
Первоначальная версия фильма была продолжительностью более 2 часов, и сразу после выхода в Италии была арестована за непристойность. Создатели фильма были оштрафованы, а фильм подвергнут цензуре, после чего его продолжительность составила 120 мин.
В 90-х годах прошлого века, перед выпуском на VHS и показом по итальянскому ТВ, фильм был с особой жестокостью отцензурирован еще раз: теперь из него дополнительно было вырезано более 10 минут "непристойных сцен".
Сюжетные прыжки, обрывающиеся диалоги, появляющиеся и исчезающие персонажи - не часть творческого замысла, как у Феллини, и не небрежность режиссера, а следствие того, что картина потеряла восьмую часть своей продолжительности.
Доп. информация: Релиз
Перевод: Martin01634
Озвучание: Urasiko
Раздача с субтитрами
Сэмпл: http://multi-up.com/1065043
Качество видео: VHSRip
Формат видео: AVI
Видео: DivX, 720x400 (1.80:1), 25 fps, 1479 kbps avg, 0.20 bit/pixel
Аудио: Русский: MP3, 48 KHz, 128 Kbps, 2 channels
Аудио 2: Итальянский: MP3, 44,1 KHz, 128 Kbps, 2 channels
Формат субтитров: softsub (SRT)

MediaInfo

General
Complete name : E:\Satyricon (Gian Luigi Polidoro - 1968)\Satyricon (Gian Luigi Polidoro - 1968).avi
Format : AVI
Format/Info : Audio Video Interleave
File size : 1.32 GiB
Duration : 1h 47mn
Overall bit rate : 1 751 Kbps
Video
ID : 0
Format : MPEG-4 Visual
Format settings, BVOP : 1
Format settings, QPel : No
Format settings, GMC : No warppoints
Format settings, Matrix : Default (H.263)
Codec ID : DX50
Codec ID/Hint : DivX 5
Duration : 1h 47mn
Bit rate : 1 480 Kbps
Width : 720 pixels
Height : 400 pixels
Display aspect ratio : 16:9
Frame rate : 25.000 fps
Color space : YUV
Chroma subsampling : 4:2:0
Bit depth : 8 bits
Scan type : Progressive
Compression mode : Lossy
Bits/(Pixel*Frame) : 0.206
Stream size : 1.11 GiB (85%)
Writing library : DivX 6.8.5 (UTC 2009-08-20)
Audio #1
ID : 1
Format : MPEG Audio
Format version : Version 1
Format profile : Layer 3
Mode : Joint stereo
Mode extension : MS Stereo
Codec ID : 55
Codec ID/Hint : MP3
Duration : 1h 47mn
Bit rate mode : Constant
Bit rate : 128 Kbps
Channel(s) : 2 channels
Sampling rate : 48.0 KHz
Compression mode : Lossy
Stream size : 98.6 MiB (7%)
Alignment : Split accross interleaves
Interleave, duration : 40 ms (1.00 video frame)
Interleave, preload duration : 500 ms
Audio #2
ID : 2
Format : MPEG Audio
Format version : Version 1
Format profile : Layer 3
Mode : Joint stereo
Mode extension : MS Stereo
Codec ID : 55
Codec ID/Hint : MP3
Duration : 1h 47mn
Bit rate mode : Constant
Bit rate : 128 Kbps
Channel(s) : 2 channels
Sampling rate : 44.1 KHz
Compression mode : Lossy
Stream size : 98.4 MiB (7%)
Alignment : Split accross interleaves
Interleave, duration : 40 ms (1.00 video frame)
Interleave, preload duration : 501 ms

Скриншот c названием фильма

Скриншоты

To download the content you need:
1. Download and install torrent client [for Windows] or for mobile system
2. Click on [Download]
Attention.
If the test YOU are NOT a ROBOT - does not work, then You are using an outdated browser.
Install the current browser and click on [Download]
Security: torrent client is allowed by Kaspersky.

[en.asmlocator.ru].t3844.torrent 
Torrent: Registered [ 2015-11-30 05:45 ] · 1E12FF154469C0B0F8288612FFF7F68D43E10F44

Download .torrent

Download

14 KB

Status: checked
Completed: 0 times
Size: 1.32 GB
terms.php
[Profile] [PM]
Display posts:    
Reply to topic

Current time is: 14-Dec 23:21

All times are UTC ± 0



You cannot post new topics in this forum
You cannot reply to topics in this forum
You cannot edit your posts in this forum
You cannot delete your posts in this forum
You cannot vote in polls in this forum
You cannot attach files in this forum
You can download files in this forum
Верим фактам, а не вранью Путина! Факт, что Правительство ведёт Россию к истреблению.
Так как численность населения падает, даже не смотря на приток эмигрантов!
Русская нация вымирает и вырождается, смешиваясь с эмигрантами!
Факт, что военных и граждан предприятий заставляют голосовать за партию Единая Россия и Путина
ПОД СТРАХОМ УВОЛЬНЕНИЯ!
Нам не нужно Правительство, блокирующее личную жизнь, интернет, нарушающее сохранность данных.
Все эти действия финансируются за счёт народа!