Свидетель / Le témoin (Жан-Пьер Моки / Jean-Pierre Mocky) [1978, Франция, Италия, Криминал, DVDRip] MVO (Петербург 5 канал)

Reply to topic
DL-List and Torrent activity
Size:  1.5 GB   |    Registered:  4 years   |    Completed:  0 times

Seeder not seen: 1 year 3 months

 
   
 
 
Author Message

star21 ®

Gender: Female

Longevity: 4 years 1 month

Posts: 551946

Location: Екатеринбург

Post 30-Nov-2015 05:46

[Quote]

Свидетель / Le témoin
Страна: Франция, Италия
Жанр: Криминал
Год выпуска: 1978
Продолжительность: 01:29:58
Перевод: Профессиональный (многоголосый закадровый) Петербург 5 канал
Оригинальная аудиодорожка: французский
Режиссер: Жан-Пьер Моки / Jean-Pierre Mocky
В ролях: Альберто Сорди, Филипп Нуаре, Роланд Дюбийяр, Жизель Превиль, Сандра Добрина, Поль Кроше, Жерар Хоффман, Мадлен Колин, Консуэло Феррара, Пауль Мюллер
Описание: Итальянский художник-реставратор Антонио Берти (Альберто Сорди) занимается во Франции восстанавлением картин в старинном соборе. Его круг общения довольно узок: лишь давний друг Робер Мориссон (Филипп Нуаре), преуспевающий банкир. Однажды Робер знакомит Антонио с девочкой-подростком Кэти, которая в дальнейшем служит ему натурщицей, но вскоре она исчезает и полиция обнаруживает ее труп рядом с особняком покойной матери Робера. Положение Антонио осложняется тем, что в ночь убийства он случайно увидел Робера недалеко от места преступления, но не решается рассказать об этом полиции... Французская версия проработана поточнее.
Доп. информация: Релиз
АЛЬТЕРНАТИВНАЯ ФРАНЦУЗСКАЯ ВЕРСИЯ ФИЛЬМА. МНОГО ВЫРЕЗАНО, НО ЕСТЬ НОВЫЕ ЭПИЗОДЫ
В 23:00 04.09.2015 года ТОРРЕНТ ПЕРЕЗАЛИТ. УДАЛЕНЫ СУБТИТРЫ. ФРАГМЕНТЫ БЕЗ ОЗВУЧКИ ОЗВУЧЕНЫ

Большое спасибо за перевод вырезанных фрагментов GuidoRF
Синхронизация звука Urasiko
Рип альтернативной итальянской версии фильма
Сэмпл: http://multi-up.com/1062198
Качество видео: DVDRip
Формат видео: AVI
Видео: DivX, 720x448 (1.61:1), 25 fps, 1981 kbps avg, 0.25 bit/pixe
Аудио: Русская: AC-3, 48 KHz, 192 Kbps, 2 channels
Аудио 2: Французская: AC-3, 48 KHz, 192 Kbps, 2 channels

MediaInfo

General
Complete name : F:\Sordi\Svidetel\Svidetel.avi
Format : AVI
Format/Info : Audio Video Interleave
File size : 1.50 GiB
Duration : 1h 29mn
Overall bit rate : 2 381 Kbps
Writing application : VirtualDubMod 1.5.10.2 (build 2540/release)
Writing library : VirtualDubMod build 2540/release
Video
ID : 0
Format : MPEG-4 Visual
Format profile : Advanced Simple@L5
Format settings, BVOP : No
Format settings, QPel : No
Format settings, GMC : No warppoints
Format settings, Matrix : Custom
Codec ID : XVID
Codec ID/Hint : XviD
Duration : 1h 29mn
Bit rate : 1 982 Kbps
Width : 720 pixels
Height : 448 pixels
Display aspect ratio : 16:10
Frame rate : 25.000 fps
Color space : YUV
Chroma subsampling : 4:2:0
Bit depth : 8 bits
Scan type : Progressive
Compression mode : Lossy
Bits/(Pixel*Frame) : 0.246
Stream size : 1.25 GiB (83%)
Writing library : XviD 64
Audio #1
ID : 1
Format : AC-3
Format/Info : Audio Coding 3
Mode extension : CM (complete main)
Format settings, Endianness : Big
Codec ID : 2000
Duration : 1h 29mn
Bit rate mode : Constant
Bit rate : 192 Kbps
Channel(s) : 2 channels
Channel positions : Front: L R
Sampling rate : 48.0 KHz
Bit depth : 16 bits
Compression mode : Lossy
Stream size : 124 MiB (8%)
Alignment : Split accross interleaves
Interleave, duration : 40 ms (1.00 video frame)
Interleave, preload duration : 500 ms
Audio #2
ID : 2
Format : AC-3
Format/Info : Audio Coding 3
Mode extension : CM (complete main)
Format settings, Endianness : Big
Codec ID : 2000
Duration : 1h 29mn
Bit rate mode : Constant
Bit rate : 192 Kbps
Channel(s) : 2 channels
Channel positions : Front: L R
Sampling rate : 48.0 KHz
Bit depth : 16 bits
Compression mode : Lossy
Stream size : 124 MiB (8%)
Alignment : Split accross interleaves
Interleave, duration : 40 ms (1.00 video frame)
Interleave, preload duration : 500 ms

Скриншот c названием фильма

Скриншоты

To download the content you need:
1. Download and install torrent client [for Windows] or for mobile system
2. Click on [Download]
Attention.
If the test YOU are NOT a ROBOT - does not work, then You are using an outdated browser.
Install the current browser and click on [Download]
Security: torrent client is allowed by Kaspersky.

[en.asmlocator.ru].t3839.torrent 
Torrent: Registered [ 2015-11-30 05:45 ] · B5C67FF7E42778AAD4249256BAA5FA870078321D

Download .torrent

Download

15 KB

Status: checked
Completed: 0 times
Size: 1.5 GB
terms.php
[Profile] [PM]
Display posts:    
Reply to topic

Current time is: 08-Dec 09:58

All times are UTC ± 0



You cannot post new topics in this forum
You cannot reply to topics in this forum
You cannot edit your posts in this forum
You cannot delete your posts in this forum
You cannot vote in polls in this forum
You cannot attach files in this forum
You can download files in this forum
Верим фактам, а не вранью Путина! Факт, что Правительство ведёт Россию к истреблению.
Так как численность населения падает, даже не смотря на приток эмигрантов!
Русская нация вымирает и вырождается, смешиваясь с эмигрантами!
Факт, что военных и граждан предприятий заставляют голосовать за партию Единая Россия и Путина
ПОД СТРАХОМ УВОЛЬНЕНИЯ!
Нам не нужно Правительство, блокирующее личную жизнь, интернет, нарушающее сохранность данных.
Все эти действия финансируются за счёт народа!