Мацист, самый сильный человек в мире / Maciste, l\'uomo piu forte del mondo / The Strongest Man in the World (Антонио Леонвиола / Antonio Leonviola) [1961, Италия, Приключения, пеплум, DVDRip] Sub Rus + Original Ita

Reply to topic
DL-List and Torrent activity
Size:  702 MB   |    Registered:  4 years   |    Completed:  0 times

Seeder not seen: 1 month 20 days

 
   
 
 
Author Message

star21 ®

Gender: Female

Longevity: 4 years 1 month

Posts: 551946

Location: Екатеринбург

Post 30-Nov-2015 05:46

[Quote]

Мацист, самый сильный человек в мире / Maciste, l'uomo più forte del mondo / The Strongest Man in the World
Страна: Италия
Жанр: Приключения, пеплум
Год выпуска: 1961
Продолжительность: 01:34:03
Перевод: Субтитры андрей-д
Cубтитры: русские
Оригинальная аудиодорожка: итальянский
Режиссер: Антонио Леонвиола / Antonio Leonviola
В ролях: Марк Форест, Мойра Орфей, Пол Уайнтер, Раффаэлла Карра, Энрико Глори, Роберто Миали, Нандо Тамберлани, Грациэлла Граната, Джанин Хенди, Синция Кэм, Бруна Мори, Анна Де Мартино, Франка Полезелло, Глория Хендри, Лучана Вивальди, Джанни Гарко, Мара Ломбард
Описание: В незапамятные времена на Земле жило племя полудемонов, боящихся солнечного света. Из-за этого они вынуждены были обитать в подземельях, где добывали несметные богатства с помощью порабощенных людей. Однажды великий герой Мацист, странствуя по свету, увидел, как подземные демоны похищают мирных селян и, естественно, не смог пройти мимо. Вместе со спасенным им из рук созданий Тьмы силачом Банго он позволил демонам пленить себя. Так герои попали в царство Халис Мойаб. Правительница демонов сразу обратила внимание на Мациста. И неспроста — ведь в отличие от своих подданных она была человеком, украденной демонами дочерью земных правителей. Теперь верховный жрец расы полудемонов Кахаб мечтает женить на Халис своего сына, чтобы их потомство не боялось солнечного света. Естественно, он видит в Мацисте угрозу своим планам. К тому же неугомонный герой собрался освободить рабов, что подземным жителям явно не нравится…
Доп. информация: Английские субтитры предоставила larisa547.
Титры в фильме – на английском языке.
Сэмпл: http://multi-up.com/1065041
Качество видео: DVDRip
Формат видео: AVI
Видео: 704x320 (2.20:1), 25 fps, DivX Codec 5.2.1 build 1328 ~905 kbps avg, 0.16 bit/pixel
Аудио: 48 kHz, MPEG Layer 3, 2 ch, ~128.00 kbps avg
Формат субтитров: softsub (SRT)

MediaInfo

Format : AVI
Format/Info : Audio Video Interleave
File size : 702 MiB
Duration : 1h 34mn
Overall bit rate : 1 043 Kbps
Writing application : VirtualDubMod 1.5.10.3 (build 2550/release)
Writing library : VirtualDubMod build 2550/release
Video
ID : 0
Format : MPEG-4 Visual
Format settings, BVOP : Yes
Format settings, QPel : No
Format settings, GMC : No warppoints
Format settings, Matrix : Default (H.263)
Codec ID : DX50
Codec ID/Hint : DivX 5
Duration : 1h 34mn
Bit rate : 905 Kbps
Width : 704 pixels
Height : 320 pixels
Display aspect ratio : 2.2:1
Frame rate : 25.000 fps
Color space : YUV
Chroma subsampling : 4:2:0
Bit depth : 8 bits
Scan type : Progressive
Compression mode : Lossy
Bits/(Pixel*Frame) : 0.161
Stream size : 609 MiB (87%)
Writing library : DivX 5.2.1 (WaffleDay) (UTC 2004-09-08)
Audio
ID : 1
Format : MPEG Audio
Format version : Version 1
Format profile : Layer 3
Mode : Joint stereo
Mode extension : MS Stereo
Codec ID : 55
Codec ID/Hint : MP3
Duration : 1h 34mn
Bit rate mode : Constant
Bit rate : 128 Kbps
Channel count : 2 channels
Sampling rate : 48.0 KHz
Compression mode : Lossy
Stream size : 86.1 MiB (12%)
Alignment : Aligned on interleaves
Interleave, duration : 40 ms (1.00 video frame)
Interleave, preload duration : 504 ms
Writing library : LAME3.97b
Encoding settings : -m j -V 4 -q 2 -lowpass 17 -b 128

Скриншот c названием фильма

Скриншоты

Пример субтитров

1
00:00:04,661 --> 00:00:10,904
Мацист, самый сильный человек в мире
2
00:01:49,661 --> 00:01:54,994
Тысячи лет назад, в древние времена, существовала
таинственная раса полулюдей – полудемонов, обречённых на жизнь
3
00:01:55,006 --> 00:02:02,093
в темноте под землей. Выходя из своих пещер
по ночам, они сеяли рушения и смерть на земле.
4
00:05:23,661 --> 00:05:25,094
Итуро!
5
00:05:28,901 --> 00:05:30,698
Это - я, Мацист.
6
00:05:30,741 --> 00:05:33,574
Мацист! Я ехал за тобой.
7
00:05:34,061 --> 00:05:36,416
Мои люди, могут погибнуть.
8
00:05:36,461 --> 00:05:38,975
Мой сын Лот взят в плен.
9
00:05:39,021 --> 00:05:40,659
Спаси, его.
10
00:05:41,101 --> 00:05:42,693
Защити, меня.
11
00:05:43,941 --> 00:05:46,250
Я...
12
00:07:00,661 --> 00:07:02,140
Аран...
13
00:07:06,581 --> 00:07:08,651
Где, все?
14
00:07:08,701 --> 00:07:13,252
Давай, убегай! Давай, убегай! Они, убили всех!
У них, нет никакой жалости!
15
00:07:14,101 --> 00:07:16,490
Скажи, мне кто они. Кто, это был?
16
00:07:16,541 --> 00:07:18,611
Люди-кроты.
17
00:07:18,661 --> 00:07:20,458
Но, людей-кротов не существует.
18
00:07:21,581 --> 00:07:23,697
Я видела, как они вышли из темноты.
19
00:07:23,741 --> 00:07:26,335
Они, мгновенно, перебили нас
20
00:07:26,381 --> 00:07:27,939
Меня, они не заметили.

To download the content you need:
1. Download and install torrent client [for Windows] or for mobile system
2. Click on [Download]
Attention.
If the test YOU are NOT a ROBOT - does not work, then You are using an outdated browser.
Install the current browser and click on [Download]
Security: torrent client is allowed by Kaspersky.

[en.asmlocator.ru].t3838.torrent 
Torrent: Registered [ 2015-11-30 05:45 ] · 68F1D4C6271A41E9A77F06AC84E72850A03F5576

Download .torrent

Download

14 KB

Status: checked
Completed: 0 times
Size: 702 MB
terms.php
[Profile] [PM]
Display posts:    
Reply to topic

Current time is: 09-Dec 04:51

All times are UTC ± 0



You cannot post new topics in this forum
You cannot reply to topics in this forum
You cannot edit your posts in this forum
You cannot delete your posts in this forum
You cannot vote in polls in this forum
You cannot attach files in this forum
You can download files in this forum
Верим фактам, а не вранью Путина! Факт, что Правительство ведёт Россию к истреблению.
Так как численность населения падает, даже не смотря на приток эмигрантов!
Русская нация вымирает и вырождается, смешиваясь с эмигрантами!
Факт, что военных и граждан предприятий заставляют голосовать за партию Единая Россия и Путина
ПОД СТРАХОМ УВОЛЬНЕНИЯ!
Нам не нужно Правительство, блокирующее личную жизнь, интернет, нарушающее сохранность данных.
Все эти действия финансируются за счёт народа!