В памяти навсегда / So Well Remembered (Эдвард Дмитрик / Edward Dmytryk) [1947, Великобритания, драма, мелодрама, детектив, DVDRip] VO (Алексей Яковлев) + Original Eng

Reply to topic
DL-List and Torrent activity
Size:  1.61 GB   |    Registered:  4 years   |    Completed:  0 times

Seeder not seen: Never

 
   
 
 
Author Message

star21 ®

Gender: Female

Longevity: 4 years 1 month

Posts: 551946

Location: Екатеринбург

Post 30-Nov-2015 05:46

[Quote]

В памяти навсегда / So Well Remembered
Страна: Великобритания
Жанр: драма, мелодрама, детектив
Год выпуска: 1947
Продолжительность: 01:54:34
Перевод: Одноголосый закадровый -
Cубтитры: нет
Оригинальная аудиодорожка: английский
Режиссер: Эдвард Дмитрик / Edward Dmytryk
Композитор: Ганнс Эйслер / Hanns Eisler
В ролях: Джон Миллз / John Mills ... George Boswell
Марта Скотт / Martha Scott ... Olivia
Патриция Рок / Patricia Roc ... Julie Morgan

Тревор Ховард / Trevor Howard ... Dr. Richard Whiteside
Ричард Карлсон / Richard Carlson ... Charles Winslow / Charles Winslow Sr.
Реджинальд Тейт / Reginald Tate ... Trevor Mangin
Беатрис Варли / Beatrice Varley ... Annie
Фредерик Лейстер / Frederick Leister ... John Channing
Айвор Барнард / Ivor Barnard ... Spivey
Джулиан Д’Альби / Julian D'Albie ... Wetherall
Джульетт Миллз / Juliet Mills ... Young Julie
Родди Хьюз / Roddy Hughes ... Chief Librarian
Джон Тернбулл / John Turnbull ... Morris
Лионель Уоттс / Lyonel Watts ... Mayor

Джоан Хиксон / Joan Hickson ... Mother, в титрах не указана
Хейли Миллз / Hayley Mills ... Infant, в титрах не указана
Описание: Экранизация одноимённого романа Джеймса Хилтона (James Hilton).
Конец Второй мировой войны. Мэр Джордж Босвелл вспоминает события последних 25 лет своей жизни, проведённых в его родном городке Броудли. Будучи редактором газеты и членом городского совета, Джордж Босвелл посвятил свою жизнь улучшению условий жизни горожан.--БОЛЬШОЕ СПАСИБО:
Работа со звуком и реавторинг DVD -
Перевод и озвучивание фильма -
Также Большое Спасибо всем, кто принял участие в появлении озвучки к этому фильму:
Магда, Lafajet, jasenka, елена 22, yanaelisa, surzhoks, voostorg, Ugo927, борюська, cementit, spartakeynoir, Arias, old76, Lentyai80, erfv, mumzik69, Patsy+
----Сэмпл: http://multi-up.com/1065379
Качество видео: DVDRip
Формат видео: AVI
Видео: XviD, 640x480 (4:3), 23.976 fps, 1619 Kbps
Аудио: AC3, 48.0 KHz, 2 ch., 192 Kbps (русский одноголосый закадровый перевод) - Алексей Яковлев
Аудио 2: AC3, 48.0 KHz, 2 ch., 192 Kbps (оригинальная английская звуковая дорожка, лежит отдельно)
(см. "Программы для работы с контейнерами" - > "VirtualDub" или "AVI-Mux")

MediaInfo

AVI-файл:
Общее
Полное имя : K:\раздачи\So Well Remembered 1947\So Well Remembered.avi
Формат : AVI
Формат/Информация : Audio Video Interleave
Размер файла : 1,46 Гбайт
Продолжительность : 1 ч. 54 м.
Общий поток : 1820 Кбит/сек
Программа кодирования : VirtualDubMod 1.5.10.3 | www.virtualdub-fr.org || (build 2550/release)
Библиотека кодирования : VirtualDubMod build 2550/release
Видео
Идентификатор : 0
Формат : MPEG-4 Visual
Профиль формата : Advanced Simple@L5
Параметр BVOP формата : 2
Параметр QPel формата : Нет
Параметр GMC формата : Без точки перехода
Параметр матрицы формата : Default (H.263)
Идентификатор кодека : DX50
Идентификатор кодека/Подсказка : DivX 5
Продолжительность : 1 ч. 54 м.
Битрейт : 1619 Кбит/сек
Ширина : 640 пикселей
Высота : 480 пикселей
Соотношение сторон : 4:3
Частота кадров : 23,976 кадра/сек
Цветовое пространство : YUV
Субдискретизация насыщенности : 4:2:0
Битовая глубина : 8 бит
Тип развёртки : Прогрессивная
Метод сжатия : С потерями
Бит/(Пиксели*Кадры) : 0.220
Размер потока : 1,30 Гбайт (89%)
Библиотека кодирования : XviD 73
Аудио
Идентификатор : 1
Формат : AC-3
Формат/Информация : Audio Coding 3
Расширение режима : CM (complete main)
Параметр Endianness формата : Big
Идентификатор кодека : 2000
Продолжительность : 1 ч. 54 м.
Вид битрейта : Постоянный
Битрейт : 192 Кбит/сек
Каналы : 2 канала
Расположение каналов : Front: L R
Частота : 48,0 КГц
Битовая глубина : 16 бит
Метод сжатия : С потерями
Размер потока : 157 Мбайт (11%)
Выравнивание : Разделение по промежуткам
Продолжительность промежутка : 42 мс. (1,00 видеокадр)
Время предзагрузки промежутка : 500 мс.
английская оригинальная дорожка, лежит отдельно:
Общее
Полное имя : K:\раздачи\So Well Remembered 1947\So Well Remembered.ENG.ac3
Формат : AC-3
Формат/Информация : Audio Coding 3
Размер файла : 157 Мбайт
Продолжительность : 1 ч. 54 м.
Режим общего битрейта : Постоянный
Общий поток : 192 Кбит/сек
Аудио
Формат : AC-3
Формат/Информация : Audio Coding 3
Расширение режима : CM (complete main)
Параметр Endianness формата : Big
Продолжительность : 1 ч. 54 м.
Вид битрейта : Постоянный
Битрейт : 192 Кбит/сек
Каналы : 2 канала
Расположение каналов : Front: L R
Частота : 48,0 КГц
Битовая глубина : 16 бит
Метод сжатия : С потерями
Размер потока : 157 Мбайт (100%)

Исходник

To download the content you need:
1. Download and install torrent client [for Windows] or for mobile system
2. Click on [Download]
Attention.
If the test YOU are NOT a ROBOT - does not work, then You are using an outdated browser.
Install the current browser and click on [Download]
Security: torrent client is allowed by Kaspersky.

[en.asmlocator.ru].t3835.torrent 
Torrent: Registered [ 2015-11-30 05:45 ] · B8D049A9EDC1FA0744DD9CAEB905902B9F8A3A47

Download .torrent

Download

17 KB

Status: checked
Completed: 0 times
Size: 1.61 GB
terms.php
[Profile] [PM]
Display posts:    
Reply to topic

Current time is: 12-Dec 15:39

All times are UTC ± 0



You cannot post new topics in this forum
You cannot reply to topics in this forum
You cannot edit your posts in this forum
You cannot delete your posts in this forum
You cannot vote in polls in this forum
You cannot attach files in this forum
You can download files in this forum
Верим фактам, а не вранью Путина! Факт, что Правительство ведёт Россию к истреблению.
Так как численность населения падает, даже не смотря на приток эмигрантов!
Русская нация вымирает и вырождается, смешиваясь с эмигрантами!
Факт, что военных и граждан предприятий заставляют голосовать за партию Единая Россия и Путина
ПОД СТРАХОМ УВОЛЬНЕНИЯ!
Нам не нужно Правительство, блокирующее личную жизнь, интернет, нарушающее сохранность данных.
Все эти действия финансируются за счёт народа!