Ночь над Готенхафеном / Nacht fiel über Gotenhafen (Франк Висбар / Frank Wisbar) [1960, Германия, Военный, DVDRip-AVC] VO (den904) + Sub Rus

Reply to topic
DL-List and Torrent activity
Size:  1.45 GB   |    Registered:  4 years   |    Completed:  0 times

Seeder not seen: 1 month 16 days

 
   
 
 
Author Message

star21 ®

Gender: Female

Longevity: 4 years 1 month

Posts: 551946

Location: Екатеринбург

Post 30-Nov-2015 05:46

[Quote]

Ночь над Готенхафеном / Nacht fiel über Gotenhafen / Darkness Fell on Gotenhafen
Страна: Германия (ФРГ)
Жанр: Военный
Год выпуска: 1960
Продолжительность: 01:34:01
Перевод: Одноголосый закадровый den904
Перевод 2: Субтитры karlivanovich
Cубтитры: русские
Оригинальная аудиодорожка: немецкий
Режиссер: Франк Висбар / Frank Wisbar
В ролях: Соня Циманн, Гуннар Мёллер, Эрик Шуманн, Бригитта Хорней, Мади Раль, Эрих Дунскус, Willy Maertens, Эдит Шульце-Веструм, Вольфганг Прайсс, Татьяна Иванов
Описание: Как Александр Иванович Маринеско, командир подводной лодки С-13 на траверзе Штольпмюнде пассажиров лайнера «Вильгельм Густлофф» водой из Балтики напоил.
Фильм на эту же тему:
Релиз kosmoaelita и videodemons

Сэмпл
kinopoisk
[imdb]http://www.imdb.com/title/tt0053092[/imdb]
Качество видео: DVDRip-AVC
Формат видео: mkv
Видео: AVC, 720х552, 1 818 Kbps, 25.000 fps
Аудио: Русский, 48 kHz, AC-3, 2 ch, ~192.00 kbps avg
Аудио 2: Немецкий, 48 kHz, AC-3, 2 ch, ~192.00 kbps avg
Формат субтитров: softsub (SRT)
Доп. информация о субтитрах: karlivanovich

MediaInfo

General
Complete name : F:\Nacht fiel uber Gotenhafen 1960.x264.DVDRip (Ger, Rus).mkv
Format : Matroska
Format version : Version 4 / Version 2
File size : 1.45 GiB
Duration : 1h 34mn
Overall bit rate : 2 204 Kbps
Movie name : Nacht fiel uber Gotenhafen / 1960 / rip from PAL DVD5 by sasha20072007 (kosmoaelita) (2015-06-18), crf=22.07
Encoded date : UTC 2015-09-06 00:54:14
Writing application : mkvmerge v7.9.0 ('Birds') 64bit
Writing library : libebml v1.3.1 + libmatroska v1.4.2
_STATISTICS_WRITING_APP : mkvmerge v7.9.0 ('Birds') 64bit
_STATISTICS_WRITING_DATE_UTC : 2015-09-06 00:54:14
_STATISTICS_TAGS : BPS DURATION NUMBER_OF_FRAMES NUMBER_OF_BYTES
DURATION : 01:33:08.916000000
NUMBER_OF_FRAMES : 1204
NUMBER_OF_BYTES : 78393
Attachment : Yes
Video
ID : 1
Format : AVC
Format/Info : Advanced Video Codec
Format profile : High@L4.1
Format settings, CABAC : Yes
Format settings, ReFrames : 8 frames
Codec ID : V_MPEG4/ISO/AVC
Duration : 1h 34mn
Bit rate : 1 818 Kbps
Width : 720 pixels
Height : 552 pixels
Display aspect ratio : 4:3
Frame rate mode : Constant
Frame rate : 25.000 fps
Color space : YUV
Chroma subsampling : 4:2:0
Bit depth : 8 bits
Scan type : Progressive
Bits/(Pixel*Frame) : 0.183
Stream size : 1.17 GiB (81%)
Writing library : x264 core 130 r2273 b3065e6
Encoding settings : cabac=1 / ref=8 / deblock=1:0:-1 / analyse=0x3:0x133 / me=umh / subme=11 / psy=1 / psy_rd=0.99:0.14 / mixed_ref=1 / me_range=24 / chroma_me=1 / trellis=2 / 8x8dct=1 / cqm=0 / deadzone=21,11 / fast_pskip=1 / chroma_qp_offset=-3 / threads=6 / lookahead_threads=1 / sliced_threads=0 / nr=0 / decimate=1 / interlaced=0 / bluray_compat=0 / constrained_intra=0 / bframes=8 / b_pyramid=2 / b_adapt=2 / b_bias=0 / direct=3 / weightb=1 / open_gop=0 / weightp=2 / keyint=210 / keyint_min=21 / scenecut=40 / intra_refresh=0 / rc_lookahead=80 / rc=2pass / mbtree=1 / bitrate=1818 / ratetol=1.0 / qcomp=0.65 / qpmin=0 / qpmax=69 / qpstep=4 / cplxblur=20.0 / qblur=0.5 / ip_ratio=1.25 / aq=1:0.90
Default : Yes
Forced : No
Color primaries : BT.601 PAL
Transfer characteristics : BT.470 System B, BT.470 System G
Matrix coefficients : BT.601
Audio #1
ID : 2
Format : AC-3
Format/Info : Audio Coding 3
Mode extension : CM (complete main)
Format settings, Endianness : Big
Codec ID : A_AC3
Duration : 1h 34mn
Bit rate mode : Constant
Bit rate : 192 Kbps
Channel(s) : 2 channels
Channel positions : Front: L R
Sampling rate : 48.0 KHz
Bit depth : 16 bits
Compression mode : Lossy
Stream size : 129 MiB (9%)
Title : Русский (den904-KA-VD)
Language : Russian
Default : Yes
Forced : No
Audio #2
ID : 3
Format : AC-3
Format/Info : Audio Coding 3
Mode extension : CM (complete main)
Format settings, Endianness : Big
Codec ID : A_AC3
Duration : 1h 34mn
Bit rate mode : Constant
Bit rate : 192 Kbps
Channel(s) : 2 channels
Channel positions : Front: L R
Sampling rate : 48.0 KHz
Bit depth : 16 bits
Compression mode : Lossy
Stream size : 129 MiB (9%)
Language : German
Default : No
Forced : No
Text
ID : 4
Format : UTF-8
Codec ID : S_TEXT/UTF8
Codec ID/Info : UTF-8 Plain Text
Title : Русский (karlivanovich-KA-VD)
Language : Russian
Default : No
Forced : No
Menu
00:08:09.960 : en:00:08:09.960
00:16:08.280 : en:00:16:08.280
00:25:08.280 : en:00:25:08.280
00:34:42.480 : en:00:34:42.480
00:42:43.440 : en:00:42:43.440
00:50:31.080 : en:00:50:31.080
00:59:36.360 : en:00:59:36.360
01:07:18.480 : en:01:07:18.480
01:16:17.040 : en:01:16:17.040
01:22:24.720 : en:01:22:24.720
01:29:40.320 : en:01:29:40.320
01:34:01.040 : en:01:34:01.040

Скриншот с названием фильма

Скриншоты







Субтитры

1
00:00:06,317 --> 00:00:09,296
Перевод karlivanovich
2
00:00:21,294 --> 00:00:24,024
Ночь над Готенхафеном
3
00:00:26,834 --> 00:00:28,480
<i>Какое сегодня число?</i>
4
00:00:28,725 --> 00:00:31,525
<i>30 января 1945 г.</i>
5
00:00:32,390 --> 00:00:33,990
<i>Местоположение?</i>
6
00:00:34,249 --> 00:00:37,210
<i>12 морских миль к северу
от Штольпенмюнде.</i>
7
00:00:38,203 --> 00:00:41,044
<i>Сила ветра?
- Примерно пять-шесть.</i>
8
00:00:41,684 --> 00:00:45,244
<i>Шёл небольшой снег
до пяти вечера.</i>
9
00:00:45,883 --> 00:00:48,061
<i>И сейчас погода улучшается.</i>
10
00:00:48,247 --> 00:00:49,916
<i>Температура воздуха?</i>
11
00:00:50,244 --> 00:00:52,321
<i>Минус 18.</i>
12
00:00:53,210 --> 00:00:56,538
<i>Пострадавшие при кораблекрушении
быстро умирают от переохлаждения.</i>
13
00:00:56,754 --> 00:00:59,992
<i>Что за судно?
- "Вильгельм Густлофф".</i>
14
00:01:00,584 --> 00:01:02,955
<i>Шло из Готенхафена.</i>
15
00:01:03,241 --> 00:01:06,082
<i>Водоизмещение 26,000 тонн.</i>
16
00:01:06,601 --> 00:01:10,160
<i>Спушено на воду весной 1938 г.</i>
17
00:01:11,557 --> 00:01:16,258
Отважные моряки будут плавать
на тебе под девизом...
18
00:01:16,729 --> 00:01:18,930
"Сила в радости" !
19
00:01:22,499 --> 00:01:25,380
Во имя нашего фюрера
Адольфа Гитлера...
20
00:01:25,661 --> 00:01:29,581
я желаю всем
счастливого плавания.
****
1230
01:32:53,680 --> 01:32:55,901
Снова и снова мы
поддерживаем мужчин,
1231
01:32:56,098 --> 01:32:58,313
чтобы они могли
вести свои войны.
1232
01:32:58,600 --> 01:33:01,931
Мы ничего не делаем,
чтобы их остановить.
1233
01:33:03,421 --> 01:33:06,982
Завтра будет забыто даже и это.
1234
01:33:08,378 --> 01:33:11,080
Пока другой корабль не затонет.
1235
01:33:12,362 --> 01:33:15,233
Корабль размером с
Земной шар, например.

To download the content you need:
1. Download and install torrent client [for Windows] or for mobile system
2. Click on [Download]
Attention.
If the test YOU are NOT a ROBOT - does not work, then You are using an outdated browser.
Install the current browser and click on [Download]
Security: torrent client is allowed by Kaspersky.

[en.asmlocator.ru].t3834.torrent 
Torrent: Registered [ 2015-11-30 05:45 ] · FA7D97A70E69C6DB858EEB393DE4A7519DF9BB4C

Download .torrent

Download

15 KB

Status: checked
Completed: 0 times
Size: 1.45 GB
terms.php
[Profile] [PM]
Display posts:    
Reply to topic

Current time is: 05-Dec 14:39

All times are UTC ± 0



You cannot post new topics in this forum
You cannot reply to topics in this forum
You cannot edit your posts in this forum
You cannot delete your posts in this forum
You cannot vote in polls in this forum
You cannot attach files in this forum
You can download files in this forum
Верим фактам, а не вранью Путина! Факт, что Правительство ведёт Россию к истреблению.
Так как численность населения падает, даже не смотря на приток эмигрантов!
Русская нация вымирает и вырождается, смешиваясь с эмигрантами!
Факт, что военных и граждан предприятий заставляют голосовать за партию Единая Россия и Путина
ПОД СТРАХОМ УВОЛЬНЕНИЯ!
Нам не нужно Правительство, блокирующее личную жизнь, интернет, нарушающее сохранность данных.
Все эти действия финансируются за счёт народа!