Семь шпаг мстителя / Le sette spade del vendicatore / Seven Swords for the King / Sept épées pour le roi / The Seventh Sword (Риккардо Фреда) [1962, Италия, Франция, приключенческая драма, VHS>DVD9 (Custom)] VO (SATKUR) + Sub Rus + Origi

Reply to topic
DL-List and Torrent activity
Size:  5.63 GB   |    Registered:  4 years   |    Completed:  0 times

Seeder not seen: Never

 
   
 
 
Author Message

star21 ®

Gender: Female

Longevity: 4 years 1 month

Posts: 551946

Location: Екатеринбург

Post 30-Nov-2015 05:46

[Quote]

Семь шпаг мстителя / Le sette spade del vendicatore / Seven Swords for the King / Sept épées pour le roi / The Seventh Sword
Страна: Италия, Франция
Жанр: приключенческая драма
Год выпуска: 1962
Продолжительность: 01:33:16
Перевод: Одноголосый закадровый SATKUR
Cубтитры: русские андрей-д, французские(неотключаемые)
Оригинальная аудиодорожка: итальянский
Режиссер: Риккардо Фреда / Riccardo Freda
В ролях: Бретт Хэлси, Джулио Бозетти, Марио Скачча, Беатрис Альтариба, Габриэле Антонини, Альберто Соррентино, Габриэле Тинти, Анита Тодеско
Описание: Испания, конец XVI века. Три года провоевав с Францией в армии Филиппа III, граф Карлос де Базан возвращается в родовой замок. Там он узнает, что отец его умер, а имущество передано его кузену, герцогу де Сааведре, который обещает все ему возместить. Дону Карлосу становится известно о заговоре против Филиппа III. Уцелев после нескольких покушений и смертной казни (по несправедливому обвинению в убийстве первого министра), Базан тратит все силы на борьбу с заговорщиками, во главе которых стоит герцог де Сааведра. Те же планируют заманить в замок Базана короля, который способен позабыть обо всем при виде симпатичной мордашки. Филипп III не на шутку увлечен прекрасной Изабеллой, на которой дону Карлосу пришлось жениться в тюрьме...
Доп. информация: Диск из личной коллекции.
Сэмпл: http://sendfile.su/1152378
Тип релиза: VHS>DVD9 (Custom)
Контейнер: DVD-Video
Видео: PAL 4:3 (704x576) VBR
Аудио: Russian (Dolby AC3, 192 Кбит/сек, 2 ch)
Аудио 2: Italiano (Dolby AC3, 256 Кбит/сек, 2 ch)
Формат субтитров: prerendered (DVD/IDX+SUB)

DVDInfo

Size: 5.63 Gb ( 5 906 606 KBytes ) - DVD-9
Enabled regions: 1, 2, 3, 4, 5, 6, 7, 8
VTS_01 :
Play Length: 01:33:16
Video: PAL 4:3 (704x576) VBR
Audio:
Russian (Dolby AC3, 2 ch)
Italiano (Dolby AC3, 2 ch)
Subtitles:
Russian
Menu Video:
PAL 4:3 (704x576) VBR
Menu Subtitles:
Not specified
Menu English Language Unit :
Root Menu

MediaInfo

Общее
Полное имя : J:\Sette spade del vendicatore_1962\VIDEO_TS\VTS_01_1.VOB
Формат : MPEG-PS
Размер файла : 1024 Мбайт
Продолжительность : 16 м.
Режим общего битрейта : Переменный
Общий поток : 8655 Кбит/сек
Библиотека кодирования : encoded by TMPGEnc Authoring Works 4 Version. 4.0.7.32
Видео
Идентификатор : 224 (0xE0)
Формат : MPEG Video
Версия формата : Version 2
Профиль формата : Main@Main
Параметр BVOP формата : Да
Параметр матрицы формата : Выборочная
Параметр GOP формата : M=3, N=13
Продолжительность : 16 м.
Вид битрейта : Переменный
Битрейт : 8035 Кбит/сек
Максимальный битрейт : 9549 Кбит/сек
Ширина : 720 пикселей
Высота : 576 пикселей
Соотношение сторон : 4:3
Частота кадров : 25,000 кадров/сек
Стандарт вещания : PAL
Цветовое пространство : YUV
Субдискретизация насыщенности : 4:2:0
Битовая глубина : 8 бит
Тип развёртки : Прогрессивная
Метод сжатия : С потерями
Бит/(Пиксели*Кадры) : 0.775
Размер потока : 951 Мбайт (93%)
Библиотека кодирования : TMPGEnc / Authoring Works 4 Version. 4.0.7.32 Authoring Works 4 Version. 4.0.7.32
Основные цвета : BT.601 PAL
Характеристики трансфера : BT.470 System B, BT.470 System G
Коэффициенты матрицы : BT.601
Аудио #1
Идентификатор : 189 (0xBD)-128 (0x80)
Формат : AC-3
Формат/Информация : Audio Coding 3
Расширение режима : CM (complete main)
Параметр Endianness формата : Big
Режим смешивания : DVD-Video
Продолжительность : 16 м.
Вид битрейта : Постоянный
Битрейт : 192 Кбит/сек
Каналы : 2 канала
Расположение каналов : Front: L R
Частота : 48,0 КГц
Битовая глубина : 16 бит
Метод сжатия : С потерями
Размер потока : 22,7 Мбайт (2%)
Аудио #2
Идентификатор : 189 (0xBD)-129 (0x81)
Формат : AC-3
Формат/Информация : Audio Coding 3
Расширение режима : CM (complete main)
Параметр Endianness формата : Big
Режим смешивания : DVD-Video
Продолжительность : 16 м.
Вид битрейта : Постоянный
Битрейт : 256 Кбит/сек
Каналы : 2 канала
Расположение каналов : Front: L R
Частота : 48,0 КГц
Битовая глубина : 16 бит
Метод сжатия : С потерями
Размер потока : 30,3 Мбайт (3%)
Меню

Постеры

Скриншоты меню

Скриншоты

To download the content you need:
1. Download and install torrent client [for Windows] or for mobile system
2. Click on [Download]
Attention.
If the test YOU are NOT a ROBOT - does not work, then You are using an outdated browser.
Install the current browser and click on [Download]
Security: torrent client is allowed by Kaspersky.

[en.asmlocator.ru].t3833.torrent 
Torrent: Registered [ 2015-11-30 05:45 ] · 803BF2920B2753F9D4794BA0FD9781AD8453EC54

Download .torrent

Download

29 KB

Status: checked
Completed: 0 times
Size: 5.63 GB
terms.php
[Profile] [PM]
Display posts:    
Reply to topic

Current time is: 12-Dec 03:54

All times are UTC ± 0



You cannot post new topics in this forum
You cannot reply to topics in this forum
You cannot edit your posts in this forum
You cannot delete your posts in this forum
You cannot vote in polls in this forum
You cannot attach files in this forum
You can download files in this forum
Верим фактам, а не вранью Путина! Факт, что Правительство ведёт Россию к истреблению.
Так как численность населения падает, даже не смотря на приток эмигрантов!
Русская нация вымирает и вырождается, смешиваясь с эмигрантами!
Факт, что военных и граждан предприятий заставляют голосовать за партию Единая Россия и Путина
ПОД СТРАХОМ УВОЛЬНЕНИЯ!
Нам не нужно Правительство, блокирующее личную жизнь, интернет, нарушающее сохранность данных.
Все эти действия финансируются за счёт народа!