Карнавал душ / Carnival of Souls (Херк Харви / Herk Harvey) [1962, США, ужасы, триллер, DVDRip] [Цветная версия / Colorized Version] MVO + Original (Eng) + Sub (Rus)

Reply to topic
DL-List and Torrent activity
Size:  716 MB   |    Registered:  4 years   |    Completed:  0 times

Seeder not seen: 1 year 6 months

 
   
 
 
Author Message

star21 ®

Gender: Female

Longevity: 4 years 1 month

Posts: 551946

Location: Екатеринбург

Post 30-Nov-2015 05:46

[Quote]

--Карнавал душ / [imdb]http://www.imdb.com/title/tt0055830[/imdb]
Цветная версия / Colorized Version
-- Страна: США
Производство: Harcourt Productions
Жанр: ужасы, триллер, ...
Год: 1962
Продолжительность: 01:24:07
Перевод: Профессиональный (двухголосый закадровый).
Оригинальная аудиодорожка: Английский.
Субтитры: русские (форсированные).--Режиссер: Херк Харви / Herk Harvey
Сценарий: Джон Клиффорд, Херк Харви
Продюсер: Херк Харви
Оператор: Морис Пратер
Композитор: Джин Мур
Монтаж: Билл де Жарнетт, Дэн Палмквист, Херберт Л. Строк
В ролях:
Кендес Хиллигосс, Фрэнсис Фейст, Сидни Бергер, Арт Эллисон, Стэн Левитт, Том Макгиннис, Форбс Колдуэлл, Дэн Палмквист, Билл де Жарнетт, Стив Бузер, ...--Описание:
Автомобильная катастрофа. Две машины падают с моста в реку. В живых остается только юная Мэри Генри. Она переезжает в маленький городок и хочет начать новую жизнь в качестве органиста местной церкви. Вскоре она начинает замечать странные вещи: нормальные люди в городе, кажется, не видят ее, а приветствуют только бледнолицые типы, которые выглядят мертвыми и прогуливаются в заброшенном парке за городом.--Доп. информация:
Перевод субтитров: Artem-20, 2011. Синхронизация звука и субтитров: Давид Степанов, 2015.--Черно-белая версия:
--См. также:
--Разыскиваются цветные версии фильмов:
Глен или Гленда / Glen or Glenda - США, реж. Эдвард Д. Вуд мл. / Edward D. Wood Jr., 1953.
Евангелие от Матфея / The Gospel According to St. Matthew / Il vangelo secondo Matteo - Италия, Франция, реж. Пьер Паоло Пазолини / Pier Paolo Pasolini, 1964.-- [imdb]http://www.imdb.com/title/tt0055830[/imdb]--Сэмпл: http://multi-up.com/1065552
Качество: DVDRip
Формат: AVI
Видео кодек: XviD
Аудио кодек: AC3
Видео: 576x432 (1.33:1), 23.976 fps, XviD build 50 ~791 kbps avg, 0.13 bit/pixel
Аудио #1: 48 kHz, AC3 Dolby Digital, 2/0 (L,R) ch, ~192.00 kbps |Rus|
Аудио #2: 48 kHz, AC3 Dolby Digital, 2/0 (L,R) ch, ~192.00 kbps |Eng|

MediaInfo

ОбщееФормат                                   : AVIФормат/Информация                        : Audio Video InterleaveРазмер файла                             : 716 МбайтПродолжительность                        : 1 ч. 24 м.Общий поток                              : 1191 Кбит/секПрограмма кодирования                    : VirtualDubMod 1.5.4.1 (build 2178/release)Библиотека кодирования                   : VirtualDubMod build 2178/release
ВидеоИдентификатор : 0Формат : MPEG-4 VisualПрофиль формата : Advanced Simple@L5Параметр BVOP формата : 1Параметр QPel формата : НетПараметр GMC формата : Без точки переходаПараметр матрицы формата : ВыборочнаяИдентификатор кодека : XVIDИдентификатор кодека/Подсказка : XviDПродолжительность : 1 ч. 24 м.Битрейт : 792 Кбит/секШирина : 576 пикселейВысота : 432 пикселяСоотношение сторон : 4:3Частота кадров : 23,976 кадра/секЦветовое пространство : YUVСубдискретизация насыщенности : 4:2:0Битовая глубина : 8 битТип развёртки : ПрогрессивнаяМетод сжатия : С потерямиБит/(Пиксели*Кадры) : 0.133Размер потока : 477 Мбайт (67%)Библиотека кодирования : XviD 1.2.1 (UTC 2008-12-04)
Аудио #1Идентификатор : 1Формат : AC-3Формат/Информация : Audio Coding 3Расширение режима : CM (complete main)Параметр Endianness формата : BigИдентификатор кодека : 2000Продолжительность : 1 ч. 24 м.Вид битрейта : ПостоянныйБитрейт : 192 Кбит/секКаналы : 2 каналаРасположение каналов : Front: L RЧастота : 48,0 КГцМетод сжатия : С потерямиРазмер потока : 116 Мбайт (16%)Выравнивание : Разделение по промежуткамПродолжительность промежутка : 42 мс. (1,00 видеокадр)Время предзагрузки промежутка : 500 мс.
Аудио #2Идентификатор : 2Формат : AC-3Формат/Информация : Audio Coding 3Расширение режима : CM (complete main)Параметр Endianness формата : BigИдентификатор кодека : 2000Продолжительность : 1 ч. 24 м.Вид битрейта : ПостоянныйБитрейт : 192 Кбит/секКаналы : 2 каналаРасположение каналов : Front: L RЧастота : 48,0 КГцМетод сжатия : С потерямиРазмер потока : 116 Мбайт (16%)Выравнивание : Разделение по промежуткамПродолжительность промежутка : 42 мс. (1,00 видеокадр)Время предзагрузки промежутка : 500 мс.

Скриншот c названием фильма

Скриншоты

To download the content you need:
1. Download and install torrent client [for Windows] or for mobile system
2. Click on [Download]
Attention.
If the test YOU are NOT a ROBOT - does not work, then You are using an outdated browser.
Install the current browser and click on [Download]
Security: torrent client is allowed by Kaspersky.

[en.asmlocator.ru].t3832.torrent 
Torrent: Registered [ 2015-11-30 05:45 ] · BB5DDA19AB2322C13F4721D810B1E2D5FB46CA89

Download .torrent

Download

15 KB

Status: checked
Completed: 0 times
Size: 716 MB
terms.php
[Profile] [PM]
Display posts:    
Reply to topic

Current time is: 15-Dec 00:49

All times are UTC ± 0



You cannot post new topics in this forum
You cannot reply to topics in this forum
You cannot edit your posts in this forum
You cannot delete your posts in this forum
You cannot vote in polls in this forum
You cannot attach files in this forum
You can download files in this forum
Верим фактам, а не вранью Путина! Факт, что Правительство ведёт Россию к истреблению.
Так как численность населения падает, даже не смотря на приток эмигрантов!
Русская нация вымирает и вырождается, смешиваясь с эмигрантами!
Факт, что военных и граждан предприятий заставляют голосовать за партию Единая Россия и Путина
ПОД СТРАХОМ УВОЛЬНЕНИЯ!
Нам не нужно Правительство, блокирующее личную жизнь, интернет, нарушающее сохранность данных.
Все эти действия финансируются за счёт народа!