Всё о Еве / All About Eve (Джозеф Лео Манкевич / Joseph Leo Mankiewicz) [1950, США, драма, TVRip] [Цветная версия / Colorized Version] MVO

Reply to topic
DL-List and Torrent activity
Size:  1.46 GB   |    Registered:  4 years   |    Completed:  0 times

Seeder not seen: Never

 
   
 
 
Author Message

star21 ®

Gender: Female

Longevity: 4 years 1 month

Posts: 551946

Location: Екатеринбург

Post 30-Nov-2015 05:46

[Quote]

--Всё о Еве / [imdb]http://www.imdb.com/title/tt0042192[/imdb]
Цветная версия / Colorized Version
-- Страна: США
Производство: 20th Century Fox Film Corporation
Жанр: драма, ...
Год: 1950
Продолжительность: 02:18:18
Перевод: Профессиональный (многоголосый закадровый).
Оригинальная аудиодорожка: нет.
Субтитры: португальские (hardsub).--Режиссер: Джозеф Лео Манкевич / Joseph Leo Mankiewicz
Сценарий: Джозеф Лео Манкевич, Эрих Кёстнер, Мэри Орр
Продюсер: Дэррил Ф. Занук
Оператор: Милтон Р. Крэснер
Композитор: Альфред Ньюман
Художник: Джордж У. Дэвис, Лайл Р. Вилер, Томас Литтл, ...
Монтаж: Барбара МакЛин
В ролях:
Бетт Дэвис, Энн Бакстер, Джордж Сэндерс, Селест Холм, Гэри Меррил, Хью Марлоу, Грегори Ратофф, Барбара Бейтс, Мэрилин Монро, Тельма Риттер, ...--Описание:
Стареющая звезда Бродвея Марго Ченнинг имела все: успех, друзей, молодого любовника. Скромная и трудолюбивая Ева становится ее помощницей, выполняющей все желания хозяйки. Быстрее всех понимает, что Евой движет желание стать «новой Марго Ченнинг», циничный театральный критик Аддисон Де Витт.
Пресыщенный жизнью и презирающий окружающую его благопристойность, он решает помочь молодой карьеристке. Она становится его благодарной ученицей и упорно, не гнушаясь ничем, идет к вершинам славы, предавая окружающих ее людей…--Доп. информация:
Эта цветная версия фильма, показанная на телеканале «Telecine Cult» с португальскими субтитрами (субтитры не отключаются).
Релиз подготовил Давид Степанов.--Черно-белая версия:
--Разыскиваются цветные версии фильмов:
Глен или Гленда / Glen or Glenda - США, реж. Эдвард Д. Вуд мл. / Edward D. Wood Jr., 1953.
Евангелие от Матфея / The Gospel According to St. Matthew / Il vangelo secondo Matteo - Италия, Франция, реж. Пьер Паоло Пазолини / Pier Paolo Pasolini, 1964.-- [imdb]http://www.imdb.com/title/tt0042192[/imdb]--Сэмпл: http://multi-up.com/1065559
Качество: TVRip
Формат: AVI
Видео кодек: XviD
Аудио кодек: AC3
Видео: 512x384 (1.33:1), 23.976 fps, XviD MPEG-4 ~1317 kbps avg, 0.28 bit/pixel
Аудио #1: 48 kHz, AC3 Dolby Digital, 2/0 (L,R) ch, ~192.00 kbps |Rus|

MediaInfo

ОбщееФормат                                   : AVIФормат/Информация                        : Audio Video InterleaveРазмер файла                             : 1,46 ГбайтПродолжительность                        : 2 ч. 18 м.Общий поток                              : 1516 Кбит/секПрограмма кодирования                    : VirtualDubMod 1.5.4.1 (build 2178/release)Библиотека кодирования                   : VirtualDubMod build 2178/release
ВидеоИдентификатор : 0Формат : MPEG-4 VisualПрофиль формата : Advanced Simple@L5Параметр BVOP формата : 1Параметр QPel формата : НетПараметр GMC формата : Без точки переходаПараметр матрицы формата : ВыборочнаяИдентификатор кодека : XVIDИдентификатор кодека/Подсказка : XviDПродолжительность : 2 ч. 18 м.Битрейт : 1317 Кбит/секШирина : 512 пикселейВысота : 384 пикселяСоотношение сторон : 4:3Частота кадров : 23,976 кадра/секЦветовое пространство : YUVСубдискретизация насыщенности : 4:2:0Битовая глубина : 8 битТип развёртки : ПрогрессивнаяМетод сжатия : С потерямиБит/(Пиксели*Кадры) : 0.279Размер потока : 1,27 Гбайт (87%)Библиотека кодирования : XviD 73
АудиоИдентификатор : 1Формат : AC-3Формат/Информация : Audio Coding 3Расширение режима : CM (complete main)Параметр Endianness формата : BigИдентификатор кодека : 2000Продолжительность : 2 ч. 18 м.Вид битрейта : ПостоянныйБитрейт : 192 Кбит/секКаналы : 2 каналаРасположение каналов : Front: L RЧастота : 48,0 КГцМетод сжатия : С потерямиРазмер потока : 190 Мбайт (13%)Выравнивание : Разделение по промежуткамПродолжительность промежутка : 96 мс. (2,30 видеокадра)Время предзагрузки промежутка : 96 мс.

Скриншот c названием фильма

Скриншоты

To download the content you need:
1. Download and install torrent client [for Windows] or for mobile system
2. Click on [Download]
Attention.
If the test YOU are NOT a ROBOT - does not work, then You are using an outdated browser.
Install the current browser and click on [Download]
Security: torrent client is allowed by Kaspersky.

[en.asmlocator.ru].t3831.torrent 
Torrent: Registered [ 2015-11-30 05:45 ] · 7B4B9341A84A57587B20A7CE9E7377B5EF3CDE4B

Download .torrent

Download

15 KB

Status: checked
Completed: 0 times
Size: 1.46 GB
terms.php
[Profile] [PM]
Display posts:    
Reply to topic

Current time is: 14-Dec 20:30

All times are UTC ± 0



You cannot post new topics in this forum
You cannot reply to topics in this forum
You cannot edit your posts in this forum
You cannot delete your posts in this forum
You cannot vote in polls in this forum
You cannot attach files in this forum
You can download files in this forum
Верим фактам, а не вранью Путина! Факт, что Правительство ведёт Россию к истреблению.
Так как численность населения падает, даже не смотря на приток эмигрантов!
Русская нация вымирает и вырождается, смешиваясь с эмигрантами!
Факт, что военных и граждан предприятий заставляют голосовать за партию Единая Россия и Путина
ПОД СТРАХОМ УВОЛЬНЕНИЯ!
Нам не нужно Правительство, блокирующее личную жизнь, интернет, нарушающее сохранность данных.
Все эти действия финансируются за счёт народа!