Ночь над Готенхафеном / Nacht fiel über Gotenhafen (Франк Висбар / Frank Wisbar) [1960, Германия (ФРГ), военный, драма, DVDRip] VO (den904)

Reply to topic
DL-List and Torrent activity
Size:  1.37 GB   |    Registered:  4 years   |    Completed:  0 times

Seeder not seen: Never

 
   
 
 
Author Message

star21 ®

Gender: Female

Longevity: 4 years 1 month

Posts: 551946

Location: Екатеринбург

Post 30-Nov-2015 05:46

[Quote]

Ночь над Готенхафеном / Nacht fiel über Gotenhafen
Страна: Германия (ФРГ)
Жанр: военный, драма
Год выпуска: 1960
Продолжительность: 01:34:01
Перевод: Одноголосый закадровый den904
Cубтитры: нет
Оригинальная аудиодорожка: нет
Режиссер: Франк Висбар / Frank Wisbar
В ролях: Соня Циманн, Гуннар Мёллер, Эрик Шуманн, Бригитта Хорней, Мади Раль, Эрих Дунскус, Вилли Мартенс, Эдит Шульце-Веструм, Вольфганг Прайсс, Татьяна Иванов, Дитмар Шенхер, Георг Лен, Карл Ланге, Петер Фосс, Гюнтер Пфицман, Хорст Франк, Дитер Некриц, Томас Браут, Макс Виттманн, Карла Хаген, Гюнтер Унгехойер, Урсула Хервиг, Эрвин Линдер, Карл-Хайнц Крайенбаум, Тиль Киве
Описание: Фильм повествует о трагедии лайнера "Вильгельм Густлофф", который стоял в порту польского города Гдыни (немцы называли его на свой манер Готенхафен). "Вильгельм Густлофф" был боевым кораблём, на который позволили подняться более шести тысячам беженцев. Вся ответственность за их жизнь, с того момента как они поднялись на боевой корабль, лежала на соответствующих должностных лицах немецкого военного флота. Суда, предназначенные для перевозки беженцев, госпитальные суда должны были быть обозначены соответствующими знаками — красным крестом, не могли носить камуфляжную окраску, не могли идти в одном конвое вместе с военными судами. На их борту не могли находиться какие-либо военные грузы, стационарные и временно размещённые орудия ПВО, артиллерийские орудия или иные аналогичные средства. "Вильгельм Густлофф" не являлся безоружным гражданским судном: на его борту имелось вооружение, которым можно было бороться с кораблями и авиацией противника, являлся учебной плавучей базой для подводного флота Германии и шёл в сопровождении боевого корабля. Таким образом, "Густлофф" являлся законной военной целью советских подводников. Гибель пассажирского судна, торпедированного 30 января 1945 года советской подводной лодкой С-13 во главе с капитаном Маринеско, считается крупнейшей катастрофой в морской истории — в ней погибло около 9000 человек (по последним данным)...
Доп. информация: Cпасибо $Shorox, karlivanovich!
Сэмпл: http://multi-up.com/1065877
Качество видео: DVDRip
Спасибо ainto за
Формат видео: AVI
Видео: XviD, 688x528 (4:3), 25.000 fps, 1892 kbps avg
Аудио: Russian AC3 Dolby Digital, 48 kHz, 2/0 (L,R) ch, 192.00 kbps avg

MediaInfo

General
Complete name : F:\Nacht fiel uber Gotenhafen_1960\Nacht fiel uber Gotenhafen_1960.DVDRip.VO.avi
Format : AVI
Format/Info : Audio Video Interleave
File size : 1.37 GiB
Duration : 1h 34mn
Overall bit rate : 2 093 Kbps
Writing application : VirtualDubMod 1.5.10.3 | www.virtualdub-fr.org || (build 2550/release)
Writing library : VirtualDubMod build 2550/release
Video
ID : 0
Format : MPEG-4 Visual
Format profile : Advanced Simple@L5
Format settings, BVOP : 1
Format settings, QPel : No
Format settings, GMC : No warppoints
Format settings, Matrix : Default (MPEG)
Codec ID : XVID
Codec ID/Hint : XviD
Duration : 1h 34mn
Bit rate : 1 892 Kbps
Width : 688 pixels
Height : 528 pixels
Display aspect ratio : 4:3
Frame rate : 25.000 fps
Color space : YUV
Chroma subsampling : 4:2:0
Bit depth : 8 bits
Scan type : Progressive
Compression mode : Lossy
Bits/(Pixel*Frame) : 0.208
Stream size : 1.24 GiB (90%)
Writing library : XviD 73
Audio
ID : 1
Format : AC-3
Format/Info : Audio Coding 3
Mode extension : CM (complete main)
Format settings, Endianness : Big
Codec ID : 2000
Duration : 1h 34mn
Bit rate mode : Constant
Bit rate : 192 Kbps
Channel(s) : 2 channels
Channel positions : Front: L R
Sampling rate : 48.0 KHz
Bit depth : 16 bits
Compression mode : Lossy
Stream size : 129 MiB (9%)
Alignment : Split accross interleaves
Interleave, duration : 40 ms (1.00 video frame)
Interleave, preload duration : 500 ms

Скриншоты

To download the content you need:
1. Download and install torrent client [for Windows] or for mobile system
2. Click on [Download]
Attention.
If the test YOU are NOT a ROBOT - does not work, then You are using an outdated browser.
Install the current browser and click on [Download]
Security: torrent client is allowed by Kaspersky.

[en.asmlocator.ru].t3827.torrent 
Torrent: Registered [ 2015-11-30 05:45 ] · 357E221FC8F5F2804CD01576C572500096ABC867

Download .torrent

Download

14 KB

Status: checked
Completed: 0 times
Size: 1.37 GB
terms.php
[Profile] [PM]
Display posts:    
Reply to topic

Current time is: 12-Dec 16:55

All times are UTC ± 0



You cannot post new topics in this forum
You cannot reply to topics in this forum
You cannot edit your posts in this forum
You cannot delete your posts in this forum
You cannot vote in polls in this forum
You cannot attach files in this forum
You can download files in this forum
Верим фактам, а не вранью Путина! Факт, что Правительство ведёт Россию к истреблению.
Так как численность населения падает, даже не смотря на приток эмигрантов!
Русская нация вымирает и вырождается, смешиваясь с эмигрантами!
Факт, что военных и граждан предприятий заставляют голосовать за партию Единая Россия и Путина
ПОД СТРАХОМ УВОЛЬНЕНИЯ!
Нам не нужно Правительство, блокирующее личную жизнь, интернет, нарушающее сохранность данных.
Все эти действия финансируются за счёт народа!