Женщины вне игры / Zeny v ofsajdu (Борживой Земан / Borivoj Zeman) [1971, Чехословакия, комедия, TVRip] Dub (Киностудия имени М. Горького)

Reply to topic
DL-List and Torrent activity
Size:  1.35 GB   |    Registered:  4 years   |    Completed:  0 times

Seeder not seen: 1 year 5 months

 
   
 
 
Author Message

star21 ®

Gender: Female

Longevity: 4 years 1 month

Posts: 551946

Location: Екатеринбург

Post 30-Nov-2015 05:46

[Quote]

Женщины вне игры / Zeny v ofsajdu
Страна: Чехословакия
Жанр: комедия
Год выпуска: 1971
Продолжительность: 01:21:45
Перевод: Профессиональный (дублированный) Киностудия имени М. Горького
Cубтитры: нет
Оригинальная аудиодорожка: нет
Режиссер: Борживой Земан / Borivoj Zeman
В ролях: Любомир Липский, Иржина Богдалова, Стелла Зазворкова, Ярослава Броускова и др.
Описание: Старший мастер парикмахерской пан Касл ведет нелегкую жизнь: ведь в свободное от борьбы с волосами и лысинами время он еще и судит футбольные матчи национального чемпионата. На женщин у него совершенно не остается времени, но злые языки распускают слухи, что он получает огромные взятки за подсуживание в пользу определенных команд. И тут же Каслом заинтересовалась его коллега по работе Берточка - немолодая хищница с замашками среднеквалифицированной аферистки, пожелавшая окрутить перспективного жениха. Но у нее немедленно появились конкурентки.
Доп. информация: Релиз
Звук с раздачи , за что спасибо leonila и dsz.
Роли исполняют и дублируют:
Кастл - Любомир Липский Олег Голубицкий
Эма - Иржина Богдалова Серафима Холина
Берта - Стелла Зазворкова Ольга Маркина
Магда - Ярослава Броускова Наталья Рычагова
Елинек - Иржи Крампол Валерий Рыжаков
Кристина - Здена Гардболцова Данута Столярская
Нуличек - Витезслав Черный Эдуард Бредун
Копржива - Ян Скопечек Вадим Захарченко
Пан Ржегак - Йожеф Глиномаз Юрий Саранцев
Остальные роли дублировали:
Посетители парикмахерской: Ян Янакиев, Владимир Балашов, Виктор Файнлейб
Уборщица в парикмахерской - Елена Чухрай
Футбольные комментаторы: Феликс Яворский, Артем Карапетян
Егерь - Николай Граббе
Фильм дублирован на киностудии им.М.Горького
Режиссер дубляжа - Гарри Заргарьян, звукооператор - Зинаида Карлюченко
Русский текст Сары Шайкевич, редактор - П. Павлов
Сэмпл: http://multi-up.com/1065952
Качество видео: TVRip
Формат видео: AVI
Видео: Xvid, 640x480, 4:3, 25 к/с, 2160 кб/с
Аудио: ac3, 48 кГц, 192 кбпс, 2/0

MediaInfo

General
Complete name : D:\Женщины вне игры.ЧССР.1971.avi
Format : AVI
Format/Info : Audio Video Interleave
File size : 1.35 GiB
Duration : 1h 21mn
Overall bit rate : 2 361 Kbps
Writing application : VirtualDubMod 1.5.10.2 (build 2540/release)
Writing library : VirtualDubMod build 2540/release
Video
ID : 0
Format : MPEG-4 Visual
Format profile : Advanced Simple@L5
Format settings, BVOP : 1
Format settings, QPel : No
Format settings, GMC : No warppoints
Format settings, Matrix : Default (H.263)
Codec ID : XVID
Codec ID/Hint : XviD
Duration : 1h 21mn
Bit rate : 2 160 Kbps
Width : 640 pixels
Height : 480 pixels
Display aspect ratio : 4:3
Frame rate : 25.000 fps
Color space : YUV
Chroma subsampling : 4:2:0
Bit depth : 8 bits
Scan type : Progressive
Compression mode : Lossy
Bits/(Pixel*Frame) : 0.281
Stream size : 1.23 GiB (91%)
Writing library : XviD 1.2.1 (UTC 2008-12-04)
Audio
ID : 1
Format : AC-3
Format/Info : Audio Coding 3
Mode extension : CM (complete main)
Format settings, Endianness : Big
Codec ID : 2000
Duration : 1h 21mn
Bit rate mode : Constant
Bit rate : 192 Kbps
Channel(s) : 2 channels
Channel positions : Front: L R
Sampling rate : 48.0 KHz
Bit depth : 16 bits
Compression mode : Lossy
Stream size : 112 MiB (8%)
Alignment : Split accross interleaves
Interleave, duration : 40 ms (1.00 video frame)
Interleave, preload duration : 500 ms

Скриншоты


To download the content you need:
1. Download and install torrent client [for Windows] or for mobile system
2. Click on [Download]
Attention.
If the test YOU are NOT a ROBOT - does not work, then You are using an outdated browser.
Install the current browser and click on [Download]
Security: torrent client is allowed by Kaspersky.

[en.asmlocator.ru].t3826.torrent 
Torrent: Registered [ 2015-11-30 05:45 ] · 59637474F3757F25342207565F356D4A68B1FE69

Download .torrent

Download

14 KB

Status: checked
Completed: 0 times
Size: 1.35 GB
terms.php
[Profile] [PM]
Display posts:    
Reply to topic

Current time is: 09-Dec 06:06

All times are UTC ± 0



You cannot post new topics in this forum
You cannot reply to topics in this forum
You cannot edit your posts in this forum
You cannot delete your posts in this forum
You cannot vote in polls in this forum
You cannot attach files in this forum
You can download files in this forum
Верим фактам, а не вранью Путина! Факт, что Правительство ведёт Россию к истреблению.
Так как численность населения падает, даже не смотря на приток эмигрантов!
Русская нация вымирает и вырождается, смешиваясь с эмигрантами!
Факт, что военных и граждан предприятий заставляют голосовать за партию Единая Россия и Путина
ПОД СТРАХОМ УВОЛЬНЕНИЯ!
Нам не нужно Правительство, блокирующее личную жизнь, интернет, нарушающее сохранность данных.
Все эти действия финансируются за счёт народа!