Гром птиц / Солдаты воздуха / Thunder Birds / Soldiers of the Air (Уильям А. Уэллмен / William A. Wellman) [1942, США, драма, военный, DVDRip] VO (Алексей Багичев) + Original Eng

Reply to topic
DL-List and Torrent activity
Size:  1.38 GB   |    Registered:  4 years   |    Completed:  0 times

Seeder not seen: 1 year 3 months

 
   
 
 
Author Message

star21 ®

Gender: Female

Longevity: 4 years 1 month

Posts: 551946

Location: Екатеринбург

Post 30-Nov-2015 05:46

[Quote]

Гром птиц / Солдаты воздуха / Thunder Birds / Soldiers of the Air
Страна: США
Жанр: драма, военный
Год выпуска: 1942
Продолжительность: 01:18:20
Перевод: Одноголосый закадровый Алексей Багичев
Cубтитры: нет
Оригинальная аудиодорожка: английский
Режиссер: Уильям А. Уэллмен / William A. Wellman
В ролях: Джин Тирни, Престон Фостер, Джон Саттон, Джек Холт, Мэй Уитти, Джордж Барбье, Ричард Хейдн, Реджинальд Денни, Тед Норт, Дженис Картер, Ч. Монтегю Шоу, Нана Брайант, Джойс Комптон, Бесс Флауэрс, Селмер Джексон, Чарльз Таннен, Гарри Стрэндж, Уолтер Тетли, Джин Фенвик, Питер Лоуфорд, Алан Болдуин, Роберт Херрик, Джон Уитни, Брюс Вонг, Аллен Юнг
Описание: Хорошо снятая в Техниколоре история о тренировочной авиабазе "Тандерберд" (Аризона) в 1942 году в самый разгар Второй мировой войны. Очень хороший набор актеров на вторых ролях, а в главных - Джин Тирни, Престон Фостер и Джон Саттон, которые превосходно справились с актерской задачей. Прекрасные воздушные съемки на фоне аризонской пустыни. Диалоги кое-где в фильме не очень правдоподобные с точки зрения авиации, так, например, Престон Фостер, исполняющий роль инструктора гражданской авиации, говорит, что у студента "мотор накрылся", наблюдая за аварией с земли со своей бывшей возлюбленной Джин Тирни. Очень трогательную роль исполняет знаменитая английская актриса Дэйм Мэй Уитти, которая по сюжету потеряла в бою сына.В общем, это очень приятный фильм для всех зрителей, интересующихся фильмами об авиации второй мировой войны. Особенно радует, что он цветной.
Были задействованы учебно-тренировочные самолеты ВВС США: Boeing / Stearman PT-17 "Kaydet", Vultee BT-13 Valiant, North American AT-6A.
Сэмпл: http://multi-up.com/1066114
Качество видео: DVDRip
Спасибо alinto за
Формат видео: AVI
Видео: XviD, 640x480 (4:3), 25.000 fps, 2117 kbps avg
Аудио: Russian AC3 Dolby Digital, 48 kHz, 2/0 (L,R) ch, 192.00 kbps avg
Аудио 2: English AC3 Dolby Digital, 48 kHz, 2/0 (L,R) ch, 192.00 kbps avg

MediaInfo

General
Complete name : E:\Thunder Birds_1942\Thunder Birds_1942.DVDRip.VO.avi
Format : AVI
Format/Info : Audio Video Interleave
File size : 1.38 GiB
Duration : 1h 18mn
Overall bit rate : 2 515 Kbps
Writing application : VirtualDubModRus 1.5.10.2 (build 2542/release)
Writing library : VirtualDubMod build 2542/release
Video
ID : 0
Format : MPEG-4 Visual
Format profile : Advanced Simple@L5
Format settings, BVOP : 1
Format settings, QPel : No
Format settings, GMC : No warppoints
Format settings, Matrix : Default (MPEG)
Codec ID : XVID
Codec ID/Hint : XviD
Duration : 1h 18mn
Bit rate : 2 117 Kbps
Width : 640 pixels
Height : 480 pixels
Display aspect ratio : 4:3
Frame rate : 23.976 fps
Color space : YUV
Chroma subsampling : 4:2:0
Bit depth : 8 bits
Scan type : Progressive
Compression mode : Lossy
Bits/(Pixel*Frame) : 0.287
Stream size : 1.16 GiB (84%)
Writing library : XviD 73
Audio #1
ID : 1
Format : AC-3
Format/Info : Audio Coding 3
Mode extension : CM (complete main)
Format settings, Endianness : Big
Codec ID : 2000
Duration : 1h 18mn
Bit rate mode : Constant
Bit rate : 192 Kbps
Channel(s) : 2 channels
Channel positions : Front: L R
Sampling rate : 48.0 KHz
Compression mode : Lossy
Stream size : 108 MiB (8%)
Alignment : Split accross interleaves
Interleave, duration : 42 ms (1.00 video frame)
Interleave, preload duratio : 500 ms
Audio #2
ID : 2
Format : AC-3
Format/Info : Audio Coding 3
Mode extension : CM (complete main)
Format settings, Endianness : Big
Codec ID : 2000
Duration : 1h 18mn
Bit rate mode : Constant
Bit rate : 192 Kbps
Channel(s) : 2 channels
Channel positions : Front: L R
Sampling rate : 48.0 KHz
Compression mode : Lossy
Stream size : 108 MiB (8%)
Alignment : Split accross interleaves
Interleave, duration : 42 ms (1.00 video frame)
Interleave, preload duratio : 500 ms

Скриншоты

To download the content you need:
1. Download and install torrent client [for Windows] or for mobile system
2. Click on [Download]
Attention.
If the test YOU are NOT a ROBOT - does not work, then You are using an outdated browser.
Install the current browser and click on [Download]
Security: torrent client is allowed by Kaspersky.

[en.asmlocator.ru].t3823.torrent 
Torrent: Registered [ 2015-11-30 05:45 ] · B928E985B0ECD96BF75AC30B152D69CAF9082573

Download .torrent

Download

14 KB

Status: checked
Completed: 0 times
Size: 1.38 GB
terms.php
[Profile] [PM]
Display posts:    
Reply to topic

Current time is: 12-Dec 16:49

All times are UTC ± 0



You cannot post new topics in this forum
You cannot reply to topics in this forum
You cannot edit your posts in this forum
You cannot delete your posts in this forum
You cannot vote in polls in this forum
You cannot attach files in this forum
You can download files in this forum
Верим фактам, а не вранью Путина! Факт, что Правительство ведёт Россию к истреблению.
Так как численность населения падает, даже не смотря на приток эмигрантов!
Русская нация вымирает и вырождается, смешиваясь с эмигрантами!
Факт, что военных и граждан предприятий заставляют голосовать за партию Единая Россия и Путина
ПОД СТРАХОМ УВОЛЬНЕНИЯ!
Нам не нужно Правительство, блокирующее личную жизнь, интернет, нарушающее сохранность данных.
Все эти действия финансируются за счёт народа!