Капитан Америка / Captain America (Род Холкомб / Rod Holcomb) [1979, США, Боевик, фантастика, комикс, DVDRip] VO (den904) + Sub Rus + Original Eng

Reply to topic
DL-List and Torrent activity
Size:  1.46 GB   |    Registered:  4 years   |    Completed:  1 time

Seeder not seen: 1 month 19 days

 
   
 
 
Author Message

star21 ®

Gender: Female

Longevity: 4 years 1 month

Posts: 551946

Location: Екатеринбург

Post 30-Nov-2015 05:46

[Quote]

Капитан Америка / Captain America
Страна: США
Жанр: Боевик, фантастика, комикс
Год выпуска: 1979
Продолжительность: 01:37:21
Перевод: Одноголосый закадровый (den904)
Cубтитры: русские (Титаренко Владислав)
Оригинальная аудиодорожка: английский
Режиссер: Род Холкомб / Rod Holcomb
В ролях: Рэб Браун, Лен Бирман, Хезер Мензес, Робин Маттсон, Джозеф Рускин, Лэнс ЛеГолт, Фрэнк Март, Стив Форрест, Чип Джонсон, Джеймс ИнгерсоллОписание: Стиву Роджерсу, бывшему морскому пехотинцу, получившему потенциально смертельные травмы в результате несчастного случая, вводят экспериментальное химическое вещество, которое не только спасает ему жизнь, но и усиливает его тело и усиливает рефлексы. Получив необычные способности, главный герой встает перед выбором: продолжить жить своей жизнью, или же встать на борьбу с теми, кто отравляет ее всему прогрессивному обществу.Качество видео: DVDRip
Формат видео: AVI
Видео: XviD, 640x480 (4:3), 23,976 fps, ~1700 kbps
Аудио 1: AC3 Dolby Digital, 48 kHz, 2/0 (L,R) ch, 224 kbps (Rus)
Аудио 2: AC3 Dolby Digital, 48 kHz, 2/0 (L,R) ch, 224 kbps (Eng)
[imdb]http://www.imdb.com/title/tt0078937[/imdb]

MediaInfo

ОбщееПолное имя                               : E:\FILMS\Captain America 1979\Captain America 1979 DVDRip.aviФормат                                   : AVIФормат/Информация                        : Audio Video InterleaveРазмер файла                             : 1,46 ГбайтПродолжительность                        : 1 ч. 37 м.Общий поток                              : 2151 Кбит/секПрограмма кодирования                    : VirtualDubMod 1.5.10.2 (build 2542/release)Библиотека кодирования                   : VirtualDubMod build 2542/release
ВидеоИдентификатор : 0Формат : MPEG-4 VisualПрофиль формата : Advanced Simple@L5Параметр BVOP формата : 2Параметр QPel формата : НетПараметр GMC формата : Без точки переходаПараметр матрицы формата : ВыборочнаяИдентификатор кодека : XVIDИдентификатор кодека/Подсказка : XviDПродолжительность : 1 ч. 37 м.Битрейт : 1689 Кбит/секШирина : 640 пикселейВысота : 480 пикселейСоотношение сторон : 4:3Частота кадров : 23,976 кадра/секЦветовое пространство : YUVСубдискретизация насыщенности : 4:2:0Битовая глубина : 8 битТип развёртки : ПрогрессивнаяМетод сжатия : С потерямиБит/(Пиксели*Кадры) : 0.229Размер потока : 1,15 Гбайт (79%)Библиотека кодирования : XviD 65
Аудио #1Идентификатор : 1Формат : AC-3Формат/Информация : Audio Coding 3Расширение режима : CM (complete main)Параметр Endianness формата : BigИдентификатор кодека : 2000Продолжительность : 1 ч. 37 м.Вид битрейта : ПостоянныйБитрейт : 224 Кбит/секКаналы : 2 каналаРасположение каналов : Front: L RЧастота : 48,0 КГцБитовая глубина : 16 битМетод сжатия : С потерямиРазмер потока : 156 Мбайт (10%)Выравнивание : Разделение по промежуткамПродолжительность промежутка : 42 мс. (1,00 видеокадр)Время предзагрузки промежутка : 500 мс.
Аудио #2Идентификатор : 2Формат : AC-3Формат/Информация : Audio Coding 3Расширение режима : CM (complete main)Параметр Endianness формата : BigИдентификатор кодека : 2000Продолжительность : 1 ч. 37 м.Вид битрейта : ПостоянныйБитрейт : 224 Кбит/секКаналы : 2 каналаРасположение каналов : Front: L RЧастота : 48,0 КГцБитовая глубина : 16 битМетод сжатия : С потерямиРазмер потока : 156 Мбайт (10%)Выравнивание : Разделение по промежуткамПродолжительность промежутка : 42 мс. (1,00 видеокадр)Время предзагрузки промежутка : 500 мс.

Скриншоты



To download the content you need:
1. Download and install torrent client [for Windows] or for mobile system
2. Click on [Download]
Attention.
If the test YOU are NOT a ROBOT - does not work, then You are using an outdated browser.
Install the current browser and click on [Download]
Security: torrent client is allowed by Kaspersky.

[en.asmlocator.ru].t3820.torrent 
Torrent: Registered [ 2015-11-30 05:45 ] · 645016EA3CC23A3397FCD9C30CA6E8449D45B072

Download .torrent

Download

15 KB

Status: checked
Completed: 1 times
Size: 1.46 GB
terms.php
[Profile] [PM]
Display posts:    
Reply to topic

Current time is: 08-Dec 15:44

All times are UTC ± 0



You cannot post new topics in this forum
You cannot reply to topics in this forum
You cannot edit your posts in this forum
You cannot delete your posts in this forum
You cannot vote in polls in this forum
You cannot attach files in this forum
You can download files in this forum
Верим фактам, а не вранью Путина! Факт, что Правительство ведёт Россию к истреблению.
Так как численность населения падает, даже не смотря на приток эмигрантов!
Русская нация вымирает и вырождается, смешиваясь с эмигрантами!
Факт, что военных и граждан предприятий заставляют голосовать за партию Единая Россия и Путина
ПОД СТРАХОМ УВОЛЬНЕНИЯ!
Нам не нужно Правительство, блокирующее личную жизнь, интернет, нарушающее сохранность данных.
Все эти действия финансируются за счёт народа!