Сын Синдбада / Son of Sinbad (Тед Тецлафф / Ted Tetzlaff) [1955, США, фэнтези, боевик, приключения, костюмированый, DVDRip] VO (SATKUR) + Original Eng

Reply to topic
DL-List and Torrent activity
Size:  1.38 GB   |    Registered:  4 years   |    Completed:  0 times

Seeder not seen: 1 month 20 days

 
   
 
 
Author Message

star21 ®

Gender: Female

Longevity: 4 years 1 month

Posts: 551946

Location: Екатеринбург

Post 30-Nov-2015 05:46

[Quote]

Сын Синдбада / Son of Sinbad
Страна: США
Жанр: фэнтези, боевик, приключения, костюмированый
Год выпуска: 1955
Продолжительность: 01:32:46
Перевод: Одноголосый закадровый SATKUR
Cубтитры: нет
Оригинальная аудиодорожка: английский
Режиссер: Тед Тецлафф / Ted Tetzlaff
В ролях: Дэйл Робертсон
Сэлли Форрест
Лили Ст. Кир
Винсент Прайс
Мари Бланчард
Леон Эскин
Джей Новелло
Рэймонд Гринлиф
Описание: Сына Синбада и его друга Омара заключают в тюрьму, потому что они слишком часто навещают гарем калифа.
Тем времен калиф узнаёт, что Таммерлейн Безжалосный разрушит его город, если он не сдастся. Но с помощью пороха сын Синбада и Омар спасают город. Им в том помогают 40 девушек, которые все оказываются дочери 40 разбойников.
Доп. информация: Озвучено по субтитрам Serveladkin, перевод стихов Владимир Трушенков, фильм предоставлен larisa547
Сэмпл: http://multi-up.com/1066467
Качество видео: DVDRip
Формат видео: AVI
Видео: 640x480 (4:3), 23.976 fps, XviD ~1732 kbps, 0.235 bit/pixel
Аудио 1: 48 kHz, AC3 Dolby Digital, 2/0 (L,R) ch, ~192.00 kbps - русский
Аудио 2: 48 kHz, AC3 Dolby Digital, 2/0 (L,R) ch, ~192.00 kbps - английский

MediaInfo

Общее
Полное имя : F:\FILMY\FILM-2015\Disk-103\Сын Синдбада\Son.of.Sinbad.1955.USA.[vo.satkur+eng].AC3.Rus\Son.of.Sinbad.1955.USA.[vo.satkur+eng].AC3.Rus.avi
Формат : AVI
Формат/Информация : Audio Video Interleave
Размер файла : 1,38 Гбайт
Продолжительность : 1 ч. 32 м.
Общий поток : 2130 Кбит/сек
Программа кодирования : VirtualDubModRus 1.5.10.2 (build 2542/release)
Библиотека кодирования : VirtualDubMod build 2542/release
Видео
Идентификатор : 0
Формат : MPEG-4 Visual
Профиль формата : Simple@L1
Параметр BVOP формата : Нет
Параметр QPel формата : Нет
Параметр GMC формата : Без точки перехода
Параметр матрицы формата : Default (H.263)
Идентификатор кодека : XVID
Идентификатор кодека/Подсказка : XviD
Продолжительность : 1 ч. 32 м.
Битрейт : 1732 Кбит/сек
Ширина : 640 пикселей
Высота : 480 пикселей
Соотношение сторон : 4:3
Частота кадров : 23,976 кадра/сек
Цветовое пространство : YUV
Субдискретизация насыщенности : 4:2:0
Битовая глубина : 8 бит
Тип развёртки : Прогрессивная
Метод сжатия : С потерями
Бит/(Пиксели*Кадры) : 0.235
Размер потока : 1,12 Гбайт (81%)
Библиотека кодирования : Lavc52.84.0
Аудио #1
Идентификатор : 1
Формат : AC-3
Формат/Информация : Audio Coding 3
Расширение режима : CM (complete main)
Параметр Endianness формата : Big
Идентификатор кодека : 2000
Продолжительность : 1 ч. 32 м.
Вид битрейта : Постоянный
Битрейт : 192 Кбит/сек
Каналы : 2 канала
Расположение каналов : Front: L R
Частота : 48,0 КГц
Битовая глубина : 16 бит
Метод сжатия : С потерями
Размер потока : 127 Мбайт (9%)
Выравнивание : Разделение по промежуткам
Продолжительность промежутка : 42 мс. (1,00 видеокадр)
Время предзагрузки промежутка : 500 мс.
Аудио #2
Идентификатор : 2
Формат : AC-3
Формат/Информация : Audio Coding 3
Расширение режима : CM (complete main)
Параметр Endianness формата : Big
Идентификатор кодека : 2000
Продолжительность : 1 ч. 32 м.
Вид битрейта : Постоянный
Битрейт : 192 Кбит/сек
Каналы : 2 канала
Расположение каналов : Front: L R
Частота : 48,0 КГц
Битовая глубина : 16 бит
Метод сжатия : С потерями
Размер потока : 127 Мбайт (9%)
Выравнивание : Разделение по промежуткам
Продолжительность промежутка : 42 мс. (1,00 видеокадр)
Время предзагрузки промежутка : 500 мс.

Скриншот c названием фильма

To download the content you need:
1. Download and install torrent client [for Windows] or for mobile system
2. Click on [Download]
Attention.
If the test YOU are NOT a ROBOT - does not work, then You are using an outdated browser.
Install the current browser and click on [Download]
Security: torrent client is allowed by Kaspersky.

[en.asmlocator.ru].t3815.torrent 
Torrent: Registered [ 2015-11-30 05:45 ] · 29CBE151018FC723D7CFF7CEA31EE5FF498102AA

Download .torrent

Download

14 KB

Status: checked
Completed: 0 times
Size: 1.38 GB
terms.php
[Profile] [PM]
Display posts:    
Reply to topic

Current time is: 09-Dec 04:41

All times are UTC ± 0



You cannot post new topics in this forum
You cannot reply to topics in this forum
You cannot edit your posts in this forum
You cannot delete your posts in this forum
You cannot vote in polls in this forum
You cannot attach files in this forum
You can download files in this forum
Верим фактам, а не вранью Путина! Факт, что Правительство ведёт Россию к истреблению.
Так как численность населения падает, даже не смотря на приток эмигрантов!
Русская нация вымирает и вырождается, смешиваясь с эмигрантами!
Факт, что военных и граждан предприятий заставляют голосовать за партию Единая Россия и Путина
ПОД СТРАХОМ УВОЛЬНЕНИЯ!
Нам не нужно Правительство, блокирующее личную жизнь, интернет, нарушающее сохранность данных.
Все эти действия финансируются за счёт народа!