История о двух животных / A Tale of Two Critters (Джек Спайрс / Jack Speirs) [1977, США, приключения, DVDRip] VO

Reply to topic
DL-List and Torrent activity
Size:  624 MB   |    Registered:  4 years   |    Completed:  0 times

Seeder not seen: Never

 
   
 
 
Author Message

star21 ®

Gender: Female

Longevity: 4 years 1 month

Posts: 551946

Location: Екатеринбург

Post 30-Nov-2015 05:46

[Quote]

История о двух животных / A Tale of Two Critters
Страна: США / Walt Disney Productions
Жанр: приключения
Год выпуска: 1977
Продолжительность: 00:47:41
Перевод: Одноголосый закадровый (Letric)
Cубтитры: нет
Режиссер: Джек Спайрс / Jack Speirs
В ролях: Майф Наттер (рассказчик)
Описание: Этот добрый диснеевский фильм рассказывает историю о медвежонке и еноте, волею судьбы оказавшихся оторванными от своих семей. Вместе они учатся выживать, делить пищу, защищаться. И цель у них общая - вернуться домой. Но наступают холода и планы зверят меняются.
Сэмпл: http://multi-up.com/1066478
Качество видео: DVDRip
Формат видео: MKV
Видео: H264-MPEG-4 AVC, 622x476, 4:3, 29.97 fps, 1831 Kbps
Аудио: AC3, 48.0 KHz, 192 Kbps, 2 channels

MediaInfo

General
Unique ID : 186463231936563019307621392708185787342 (0x8C47831EF97F7899A35C14E08B3A8BCE)
Complete name : A Tale of Two Critters.mkv
Format : Matroska
Format version : Version 4 / Version 2
File size : 624 MiB
Duration : 47mn 41s
Overall bit rate : 1 831 Kbps
Encoded date : UTC 2015-09-13 15:22:22
Writing application : mkvmerge v8.1.0 ('Psychedelic Postcard') 64bit
Writing library : libebml v1.3.1 + libmatroska v1.4.2
DURATION : 00:47:41.344000000
NUMBER_OF_FRAMES : 89417
NUMBER_OF_BYTES : 68672256
_STATISTICS_WRITING_APP : mkvmerge v8.1.0 ('Psychedelic Postcard') 64bit
_STATISTICS_WRITING_DATE_UT : 2015-09-13 15:22:22
_STATISTICS_TAGS : BPS DURATION NUMBER_OF_FRAMES NUMBER_OF_BYTES
Video
ID : 1
Format : AVC
Format/Info : Advanced Video Codec
Format profile : Baseline@L3.0
Format settings, CABAC : No
Format settings, ReFrames : 1 frame
Codec ID : V_MPEG4/ISO/AVC
Duration : 47mn 41s
Bit rate : 1 602 Kbps
Width : 622 pixels
Height : 476 pixels
Display aspect ratio : 4:3
Frame rate mode : Constant
Frame rate : 29.970 fps
Color space : YUV
Chroma subsampling : 4:2:0
Bit depth : 8 bits
Scan type : Progressive
Bits/(Pixel*Frame) : 0.181
Stream size : 547 MiB (88%)
Language : English
Default : Yes
Forced : No
Color primaries : BT.601 NTSC
Transfer characteristics : BT.709
Matrix coefficients : BT.601
Color range : Limited
Audio
ID : 2
Format : AC-3
Format/Info : Audio Coding 3
Mode extension : CM (complete main)
Format settings, Endianness : Big
Codec ID : A_AC3
Duration : 47mn 41s
Bit rate mode : Constant
Bit rate : 192 Kbps
Channel(s) : 2 channels
Channel positions : Front: L R
Sampling rate : 48.0 KHz
Bit depth : 16 bits
Compression mode : Lossy
Stream size : 65.5 MiB (10%)
Default : Yes
Forced : No

Скриншот c названием фильма

Скриншоты

To download the content you need:
1. Download and install torrent client [for Windows] or for mobile system
2. Click on [Download]
Attention.
If the test YOU are NOT a ROBOT - does not work, then You are using an outdated browser.
Install the current browser and click on [Download]
Security: torrent client is allowed by Kaspersky.

[en.asmlocator.ru].t3814.torrent 
Torrent: Registered [ 2015-11-30 05:45 ] · 02E78929E6AF15860606ADA7365EF985256B2786

Download .torrent

Download

13 KB

Status: checked
Completed: 0 times
Size: 624 MB
terms.php
[Profile] [PM]
Display posts:    
Reply to topic

Current time is: 12-Dec 19:11

All times are UTC ± 0



You cannot post new topics in this forum
You cannot reply to topics in this forum
You cannot edit your posts in this forum
You cannot delete your posts in this forum
You cannot vote in polls in this forum
You cannot attach files in this forum
You can download files in this forum
Верим фактам, а не вранью Путина! Факт, что Правительство ведёт Россию к истреблению.
Так как численность населения падает, даже не смотря на приток эмигрантов!
Русская нация вымирает и вырождается, смешиваясь с эмигрантами!
Факт, что военных и граждан предприятий заставляют голосовать за партию Единая Россия и Путина
ПОД СТРАХОМ УВОЛЬНЕНИЯ!
Нам не нужно Правительство, блокирующее личную жизнь, интернет, нарушающее сохранность данных.
Все эти действия финансируются за счёт народа!