Отныне и во веки веков / Отсюда в вечность / From Here to Eternity (Фред Циннеман / Fred Zinnemann) [1953, США, драма, мелодрама, военный, HDRip] DVO (SomeWax)

Reply to topic
DL-List and Torrent activity
Size:  1.46 GB   |    Registered:  4 years   |    Completed:  0 times

Seeder not seen: Never

 
   
 
 
Author Message

star21 ®

Gender: Female

Longevity: 4 years 1 month

Posts: 551946

Location: Екатеринбург

Post 30-Nov-2015 05:46

[Quote]

Отныне и во веки веков / Отсюда в вечность / From Here to Eternity
Страна: США
Жанр: драма, мелодрама, военный
Год выпуска: 1953
Продолжительность: 01:58:05
Перевод: Профессиональный (двухголосый закадровый) - SomeWax
Cубтитры: нет

Режиссер: Фред Циннеман / Fred Zinnemann
В ролях: Берт Ланкастер, Монтгомери Клифт, Дебора Керр, Донна Рид, Фрэнк Синатра, Филип Обер, Мики Шонесси, Гарри Беллэвер, Эрнест Боргнайн, Джек Уорден
Описание: 1941 год, американский военный гарнизон на Гаваях. Идет обычная мирная жизнь военного гарнизона: дурные командиры, столкновение характеров и даже любовь... Роберт Ли Пруит (Монтгомери Клифт) после несчастного случая переведен в другую часть. Способный боксер, он отказывается выступать на ринге, ибо во время тренировочного боя нанес своему другу травму, в результате чего тот ослеп. Однако для армейского начальства спорт - неплохой инструмент карьеры, и нежелание рядового Пруита выходить на ринг рассматривается как нечто очень близкое к измене…
Качество видео:
Формат видео: AVI
Видео: 640x480 (1.33:1), 23.976 fps, XviD build 73 ~1371 kbps avg, 0.19 bit/pixel
Аудио: 48 kHz, AC3 Dolby Digital, 3/2 (L,C,R,l,r) + LFE ch, ~384 kbps

Сравнение

http://screenshotcomparison.com/comparison/143153
так и не получилось выкачать

скрытый текст

28234783
Видеопоток рывками. Раздача - шлак. ФТОПКУ.
если рип с ДВД9 -
то там есть указания Видео: MPEG2 Video 720x480 (4:3) 29.97fps 9800Kbps
а тут его нет ! - возможно все проблеммы от этого - при упаковке желательно было
принудительно восстановить соотношение сторон т.е. 640х480 или 720х544 4:3
26771758Видеопоток рывками. Раздача - шлак. ФТОПКУ.
26282090Не очень хороший рип... Видео на протяжении всего фильма притормаживает Ну а в целом кино на "4-".

MediaInfo

Общее
Полное имя : H:\From.Here.to.Eternity.1953.hdrip_[1.46]_[teko].avi
Формат : AVI
Формат/Информация : Audio Video Interleave
Размер файла : 1,46 Гбайт
Продолжительность : 1 ч. 58 м.
Общий поток : 1765 Кбит/сек
Программа кодирования : VirtualDubMod 1.5.10.3 | www.virtualdub-fr.org || (build 2550/release)
Библиотека кодирования : VirtualDubMod build 2550/release
Видео
Идентификатор : 0
Формат : MPEG-4 Visual
Профиль формата : Advanced Simple@L5
Параметр BVOP формата : 1
Параметр QPel формата : Нет
Параметр GMC формата : Без точки перехода
Параметр матрицы формата : Выборочная
Идентификатор кодека : XVID
Идентификатор кодека/Подсказка : XviD
Продолжительность : 1 ч. 58 м.
Битрейт : 1372 Кбит/сек
Ширина : 640 пикселей
Высота : 480 пикселей
Соотношение сторон : 4:3
Частота кадров : 23,976 кадра/сек
Цветовое пространство : YUV
Субдискретизация насыщенности : 4:2:0
Битовая глубина : 8 бит
Тип развёртки : Прогрессивная
Метод сжатия : С потерями
Бит/(Пиксели*Кадры) : 0.186
Размер потока : 1,13 Гбайт (78%)
Библиотека кодирования : XviD 73
Аудио
Идентификатор : 1
Формат : AC-3
Формат/Информация : Audio Coding 3
Расширение режима : CM (complete main)
Параметр Endianness формата : Big
Идентификатор кодека : 2000
Продолжительность : 1 ч. 58 м.
Вид битрейта : Постоянный
Битрейт : 384 Кбит/сек
Каналы : 6 каналов
Расположение каналов : Front: L C R, Side: L R, LFE
Частота : 48,0 КГц
Битовая глубина : 16 бит
Метод сжатия : С потерями
Размер потока : 324 Мбайт (22%)
Выравнивание : Разделение по промежуткам
Продолжительность промежутка : 42 мс. (1,00 видеокадр)
Время предзагрузки промежутка : 500 мс.
Релиз группы:
-
-

To download the content you need:
1. Download and install torrent client [for Windows] or for mobile system
2. Click on [Download]
Attention.
If the test YOU are NOT a ROBOT - does not work, then You are using an outdated browser.
Install the current browser and click on [Download]
Security: torrent client is allowed by Kaspersky.

[en.asmlocator.ru].t3806.torrent 
Torrent: Registered [ 2015-11-30 05:45 ] · 25D3E6CCD6839FC1F5942E01E516F0EF13E6629F

Download .torrent

Download

15 KB

Status: checked
Completed: 0 times
Size: 1.46 GB
terms.php
[Profile] [PM]
Display posts:    
Reply to topic

Current time is: 05-Dec 14:21

All times are UTC ± 0



You cannot post new topics in this forum
You cannot reply to topics in this forum
You cannot edit your posts in this forum
You cannot delete your posts in this forum
You cannot vote in polls in this forum
You cannot attach files in this forum
You can download files in this forum
Верим фактам, а не вранью Путина! Факт, что Правительство ведёт Россию к истреблению.
Так как численность населения падает, даже не смотря на приток эмигрантов!
Русская нация вымирает и вырождается, смешиваясь с эмигрантами!
Факт, что военных и граждан предприятий заставляют голосовать за партию Единая Россия и Путина
ПОД СТРАХОМ УВОЛЬНЕНИЯ!
Нам не нужно Правительство, блокирующее личную жизнь, интернет, нарушающее сохранность данных.
Все эти действия финансируются за счёт народа!