Кузен, кузина / Cousin cousine (Жан Чарльз Такчелла / Jean Charles Tacchella) [1975, Франция, мелодрама, комедия, BDRip-AVC] MVO + Sub (rus, eng) + Original Fre

Reply to topic
DL-List and Torrent activity
Size:  2.26 GB   |    Registered:  4 years   |    Completed:  0 times

Seeder not seen: Never

 
   
 
 
Author Message

star21 ®

Gender: Female

Longevity: 4 years 1 month

Posts: 551946

Location: Екатеринбург

Post 30-Nov-2015 05:46

[Quote]

-Кузен, кузина / Cousin cousine Страна: Франция
Жанр: мелодрама, комедия
Год выпуска: 1975
Продолжительность: 01:35:45-Перевод: Профессиональный (многоголосый, закадровый)
Cубтитры: русские (), английские
Оригинальная аудиодорожка: французский-Режиссер: Жан Чарльз Ташелла, / Jean Charles Tacchella-В ролях-Мари-Кристин Барро (Marthe), Виктор Лану (Ludovic), Мари-Франс Пизье (Karine), Ги Маршан (Pascal), Жинетт Гарсен (Biju), Сибил Маас (Diane), Попек (Sacy), Пьер Плесси (Gobert), Catherine Verlor (Nelsa), Юбер Жиню (Thomas), Франсуаза Кайло, Véronique Dancier-Описание-История любви кузена и кузины, познакомившихся на свадьбе бабушки. Она замужем и работает в конторе секретаршей, а он преподает танцы, и у него есть 16-летняя дочь от первого брака. Муж кузины, изменяющий жене направо и налево, увидев, что его благоверная способна пробудить в других большую любовь, решил порвать со всеми своими любовницами, но было уже поздно.-Качество видео: BDRip
Исходное видео: -Контейнер: MKV-Видео: AVC, 802х604 (4:3), ~3000 kbps, 24 fps
Аудио: AC-3, 192 kbps, Dolby Digital, 2 (L,R) ch, 48 KHz |MVO|
Аудио: AC-3, 192 kbps, Dolby Digital, 1 (C) ch, 48 KHz |Original|
Формат субтитров: softsub (SRT)--

MediaInfo

x264

VIDEO ENCODING
------------------------------
Encoding video to: J:\Temp\0143.264
x264 Q18.3 802x604 24.000fps (137882 frames)
avs4x26x.exe: -L x264_64.exe --crf 18.3 --preset veryslow --profile high --level 4.1 --aq-mode 3 --aq-strength 0.8 --deblock -3:-2 --merange 48 --bframes 16 --direct spatial --no-dct-decimate --qpmin 14 --psy-rd 1.05:0.00 --subme 11 --no-mbtree --keyint 240 --slices 4 --colorprim bt709 --transfer bt709 --colormatrix bt709 --vbv-bufsize 62500 --vbv-maxrate 50000 --partitions p8x8,b8x8,i4x4,i8x8 --zones 136400,137882,q=35 --sar 1:1 --output "J:\Temp\0143.264" "J:\Temp\0143.avs"
raw [info]: 802x604p 1:1 @ 10000000/416667 fps (cfr)
x264 [info]: using SAR=1/1
x264 [info]: using cpu capabilities: MMX2 SSE2Fast LZCNT
x264 [info]: profile High, level 4.1
x264 [info]: frame I:770 Avg QP:18.79 size: 67328
x264 [info]: frame P:26158 Avg QP:20.30 size: 31396
x264 [info]: frame B:110954 Avg QP:21.75 size: 11524
x264 [info]: consecutive B-frames: 0.8% 0.6% 2.7% 16.7% 20.2% 46.3% 7.1% 2.2% 1.5% 0.7% 0.4% 0.3% 0.2% 0.2% 0.1% 0.0% 0.1%
x264 [info]: mb I I16..4: 2.0% 85.8% 12.3%
x264 [info]: mb P I16..4: 0.2% 10.5% 1.2% P16..4: 29.9% 38.6% 17.4% 0.0% 0.0% skip: 2.2%
x264 [info]: mb B I16..4: 0.1% 0.8% 0.2% B16..8: 38.4% 24.6% 5.6% direct: 6.0% skip:24.4% L0:44.9% L1:42.3% BI:12.7%
x264 [info]: 8x8 transform intra:85.2% inter:60.5%
x264 [info]: coded y,uvDC,uvAC intra: 94.0% 82.5% 49.2% inter: 39.0% 22.1% 5.0%
x264 [info]: i16 v,h,dc,p: 16% 45% 4% 34%
x264 [info]: i8 v,h,dc,ddl,ddr,vr,hd,vl,hu: 8% 11% 8% 10% 14% 13% 12% 11% 13%
x264 [info]: i4 v,h,dc,ddl,ddr,vr,hd,vl,hu: 8% 27% 3% 6% 12% 12% 12% 9% 11%
x264 [info]: i8c dc,h,v,p: 36% 28% 20% 16%
x264 [info]: Weighted P-Frames: Y:5.1% UV:2.0%
x264 [info]: ref P L0: 35.0% 12.1% 17.6% 6.3% 6.2% 4.1% 4.3% 2.1% 2.3% 1.7% 1.8% 1.4% 1.6% 1.2% 1.4% 0.9%
x264 [info]: ref B L0: 63.6% 12.6% 6.7% 3.8% 2.7% 2.4% 1.9% 1.2% 1.0% 1.0% 0.8% 0.8% 0.7% 0.4% 0.2%
x264 [info]: ref B L1: 91.9% 8.1%
x264 [info]: kb/s:2996.28
Полное имя : J:\Раздачи\Cousin_cousine_1975_BDRip_RGTru[cw].mkv
Формат : Matroska
Версия формата : Version 2
Размер файла : 2,26 Гбайт
Продолжительность : 1 ч. 35 м.
Общий поток : 3383 Кбит/сек
Название фильма : Кузен, кузина / Cousin cousine (1975) [RGTru]
Дата кодирования : UTC 2015-09-17 12:51:05
Программа кодирования : mkvmerge v7.8.0 ('River Man') 32bit built on Apr 3 2015 12:11:22
Библиотека кодирования : libebml v1.3.1 + libmatroska v1.4.2
Видео
Идентификатор : 1
Формат : AVC
Формат/Информация : Advanced Video Codec
Профиль формата : High@L4.1
Параметр CABAC формата : Да
Параметр ReFrames формата : 16 кадров
Идентификатор кодека : V_MPEG4/ISO/AVC
Продолжительность : 1 ч. 35 м.
Битрейт : 2932 Кбит/сек
Ширина : 802 пикселя
Высота : 604 пикселя
Соотношение сторон : 4:3
Режим частоты кадров : Постоянный
Частота кадров : 24,000 кадра/сек
Цветовое пространство : YUV
Субдискретизация насыщенности : 4:2:0
Битовая глубина : 8 бит
Тип развёртки : Прогрессивная
Бит/(Пиксели*Кадры) : 0.252
Размер потока : 1,96 Гбайт (87%)
Заголовок : Cousin_cousine_1975_BDRip_RGTru[cw]
Библиотека кодирования : x264 core 146 r2538 121396c
Настройки программы : cabac=1 / ref=16 / deblock=1:-3:-2 / analyse=0x3:0x113 / me=umh / subme=11 / psy=1 / psy_rd=1.05:0.00 / mixed_ref=1 / me_range=48 / chroma_me=1 / trellis=2 / 8x8dct=1 / cqm=0 / deadzone=21,11 / fast_pskip=1 / chroma_qp_offset=-2 / threads=4 / lookahead_threads=1 / sliced_threads=0 / slices=4 / nr=0 / decimate=0 / interlaced=0 / bluray_compat=0 / constrained_intra=0 / bframes=16 / b_pyramid=2 / b_adapt=2 / b_bias=0 / direct=1 / weightb=1 / open_gop=0 / weightp=2 / keyint=240 / keyint_min=23 / scenecut=40 / intra_refresh=0 / rc_lookahead=60 / rc=crf / mbtree=0 / crf=18.3 / qcomp=0.60 / qpmin=14 / qpmax=69 / qpstep=4 / vbv_maxrate=50000 / vbv_bufsize=62500 / crf_max=0.0 / nal_hrd=none / filler=0 / ip_ratio=1.40 / pb_ratio=1.30 / aq=3:0.80 / zones=136400,137882,q=35
Язык : French
Default : Да
Forced : Нет
Цветовой диапазон : Limited
Основные цвета : BT.709
Характеристики трансфера : BT.709
Коэффициенты матрицы : BT.709
Аудио #1
Идентификатор : 2
Формат : AC-3
Формат/Информация : Audio Coding 3
Расширение режима : CM (complete main)
Параметр Endianness формата : Big
Идентификатор кодека : A_AC3
Продолжительность : 1 ч. 35 м.
Вид битрейта : Постоянный
Битрейт : 192 Кбит/сек
Каналы : 2 канала
Расположение каналов : Front: L R
Частота : 48,0 КГц
Битовая глубина : 16 бит
Метод сжатия : С потерями
Размер потока : 131 Мбайт (6%)
Заголовок : MVO
Язык : Russian
Default : Да
Forced : Нет
Аудио #2
Идентификатор : 3
Формат : AC-3
Формат/Информация : Audio Coding 3
Расширение режима : CM (complete main)
Параметр Endianness формата : Big
Идентификатор кодека : A_AC3
Продолжительность : 1 ч. 35 м.
Вид битрейта : Постоянный
Битрейт : 192 Кбит/сек
Каналы : 1 канал
Расположение каналов : Front: C
Частота : 48,0 КГц
Битовая глубина : 16 бит
Метод сжатия : С потерями
Размер потока : 131 Мбайт (6%)
Заголовок : Original
Язык : French
Default : Нет
Forced : Нет
Текст #1
Идентификатор : 4
Формат : UTF-8
Идентификатор кодека : S_TEXT/UTF8
Идентификатор кодека/Информация : UTF-8 Plain Text
Заголовок : VPN777
Язык : Russian
Default : Нет
Forced : Нет
Текст #2
Идентификатор : 5
Формат : UTF-8
Идентификатор кодека : S_TEXT/UTF8
Идентификатор кодека/Информация : UTF-8 Plain Text
Язык : English
Default : Да
Forced : Нет
Меню
00:00:00.000 : fr:
00:11:34.208 : fr:
00:16:04.125 : fr:
00:22:27.791 : fr:
00:27:29.791 : fr:
00:32:44.041 : fr:
00:42:59.250 : fr:
00:54:56.625 : fr:
01:00:59.958 : fr:
01:10:48.750 : fr:
01:16:38.500 : fr:
01:25:39.791 : fr:

Скриншоты

Сравнение с исходником

Рип-- БД

FAQ по просмотру MKV/h.264/AAC
















To download the content you need:
1. Download and install torrent client [for Windows] or for mobile system
2. Click on [Download]
Attention.
If the test YOU are NOT a ROBOT - does not work, then You are using an outdated browser.
Install the current browser and click on [Download]
Security: torrent client is allowed by Kaspersky.

[en.asmlocator.ru].t3805.torrent 
Torrent: Registered [ 2015-11-30 05:45 ] · 35C3306B01FEC799508629E14645A835F386D290

Download .torrent

Download

12 KB

Status: checked
Completed: 0 times
Size: 2.26 GB
terms.php
[Profile] [PM]
Display posts:    
Reply to topic

Current time is: 09-Dec 04:55

All times are UTC ± 0



You cannot post new topics in this forum
You cannot reply to topics in this forum
You cannot edit your posts in this forum
You cannot delete your posts in this forum
You cannot vote in polls in this forum
You cannot attach files in this forum
You can download files in this forum
Верим фактам, а не вранью Путина! Факт, что Правительство ведёт Россию к истреблению.
Так как численность населения падает, даже не смотря на приток эмигрантов!
Русская нация вымирает и вырождается, смешиваясь с эмигрантами!
Факт, что военных и граждан предприятий заставляют голосовать за партию Единая Россия и Путина
ПОД СТРАХОМ УВОЛЬНЕНИЯ!
Нам не нужно Правительство, блокирующее личную жизнь, интернет, нарушающее сохранность данных.
Все эти действия финансируются за счёт народа!