Джеймс Бонд 007: Бриллианты навсегда / James Bond 007: Diamonds Are Forever (Гай Хэмилтон / Guy Hamilton) [1971, Великобритания, боевик, триллер, приключения, BDRip] DVO (НТВ) + Original Eng

Reply to topic
DL-List and Torrent activity
Size:  1.46 GB   |    Registered:  4 years   |    Completed:  0 times

Seeder not seen: 1 year 3 months

 
   
 
 
Author Message

star21 ®

Gender: Female

Longevity: 4 years 1 month

Posts: 551946

Location: Екатеринбург

Post 30-Nov-2015 05:46

[Quote]

Бриллианты навсегда / Diamonds Are Forever
Страна: Великобритания
Жанр: боевик, триллер, приключения
Год выпуска: 1971
Продолжительность: 02:00:08
Перевод: Профессиональный (двухголосый закадровый) НТВ
Cубтитры: нет
Оригинальная аудиодорожка: английский
Режиссер: Гай Хэмилтон / Guy Hamilton
В ролях: Шон Коннери, Джилл Ст. Джон, Чарльз Грей, Лана Вуд, Джимми Дин, Брюс Кэбот, Пюттер Смит, Брюс Гловер, Норман Бёртон, Джозеф Фюрст
Описание: Джеймс Бонд долго шел по следу убийцы своей жены, Эрнста Ставро Блофелда, и наконец достиг цели.
Тем временем, на английских алмазных шахтах в Южной Африке значительно увеличилась незаконная добыча алмазов.
Поиск контрабандистов также поручают Бонду, и в конечной точке маршрута контрабанды Бонд вновь находит Блофелда.
На этот раз Блофелд, захватив управление компанией, выполняющей заказы NASA, запускает в космос свой спутник...
Доп. информация: Обе звуковые дорожки - исходные монофониеские 1.0 (не downmix из современных 5.1).
Видеоряд из этой раздачи (спасибо ):
Сэмпл: https://yadi.sk/i/gt__8nRfjA3Zr
Качество видео: BDRip
Формат видео: AVI
Видео: 720x304 (2.37:1), 23.976 fps, XviD build 73 ~1344 kbps avg, 0.26 bit/pixel
Аудио 1: 48 khz, AC3 Dolby Digital, 1/0 (C) ch, ~192 kbps - Russian DVO (НТВ)
Аудио 2: 48 khz, AC3 Dolby Digital, 1/0 (C) ch, ~192 kbps - English (Original)

MediaInfo

Общее
Полное имя : D:\Diamonds_Are_Forever_(BDRip)_NTV+original.avi
Формат : AVI
Формат/Информация : Audio Video Interleave
Размер файла : 1,46 Гбайт
Продолжительность : 2 ч. 0 м.
Общий поток : 1743 Кбит/сек
Программа кодирования : VirtualDubMod 1.5.10.2 (build 2540/release)
Библиотека кодирования : VirtualDubMod build 2540/release
Видео
Идентификатор : 0
Формат : MPEG-4 Visual
Профиль формата : Advanced Simple@L5
Параметр BVOP формата : 1
Параметр QPel формата : Нет
Параметр GMC формата : Без точки перехода
Параметр матрицы формата : Выборочная
Идентификатор кодека : XVID
Идентификатор кодека/Подсказка : XviD
Продолжительность : 2 ч. 0 м.
Битрейт : 1345 Кбит/сек
Ширина : 720 пикселей
Высота : 304 пикселя
Соотношение сторон : 2,35:1
Частота кадров : 23,976 кадра/сек
Цветовое пространство : YUV
Субдискретизация насыщенности : 4:2:0
Битовая глубина : 8 бит
Тип развёртки : Прогрессивная
Метод сжатия : С потерями
Бит/(Пиксели*Кадры) : 0.256
Размер потока : 1,13 Гбайт (77%)
Библиотека кодирования : XviD 73
Аудио #1
Идентификатор : 1
Формат : AC-3
Формат/Информация : Audio Coding 3
Расширение режима : CM (complete main)
Параметр Endianness формата : Big
Идентификатор кодека : 2000
Продолжительность : 2 ч. 0 м.
Вид битрейта : Постоянный
Битрейт : 192 Кбит/сек
Каналы : 1 канал
Расположение каналов : Front: C
Частота : 48,0 КГц
Метод сжатия : С потерями
Размер потока : 165 Мбайт (11%)
Выравнивание : Разделение по промежуткам
Продолжительность промежутка : 42 мс. (1,00 видеокадр)
Время предзагрузки промежутка : 500 мс.
Аудио #2
Идентификатор : 2
Формат : AC-3
Формат/Информация : Audio Coding 3
Расширение режима : CM (complete main)
Параметр Endianness формата : Big
Идентификатор кодека : 2000
Продолжительность : 2 ч. 0 м.
Вид битрейта : Постоянный
Битрейт : 192 Кбит/сек
Каналы : 1 канал
Расположение каналов : Front: C
Частота : 48,0 КГц
Метод сжатия : С потерями
Размер потока : 165 Мбайт (11%)
Выравнивание : Разделение по промежуткам
Продолжительность промежутка : 42 мс. (1,00 видеокадр)
Время предзагрузки промежутка : 500 мс.

Скриншот c названием фильма

Скриншоты

To download the content you need:
1. Download and install torrent client [for Windows] or for mobile system
2. Click on [Download]
Attention.
If the test YOU are NOT a ROBOT - does not work, then You are using an outdated browser.
Install the current browser and click on [Download]
Security: torrent client is allowed by Kaspersky.

[en.asmlocator.ru].t3804.torrent 
Torrent: Registered [ 2015-11-30 05:45 ] · 08234C6ACD5C773368D5A1D1C289CF12F0A26FEC

Download .torrent

Download

15 KB

Status: checked
Completed: 0 times
Size: 1.46 GB
terms.php
[Profile] [PM]
Display posts:    
Reply to topic

Current time is: 05-Dec 15:14

All times are UTC ± 0



You cannot post new topics in this forum
You cannot reply to topics in this forum
You cannot edit your posts in this forum
You cannot delete your posts in this forum
You cannot vote in polls in this forum
You cannot attach files in this forum
You can download files in this forum
Верим фактам, а не вранью Путина! Факт, что Правительство ведёт Россию к истреблению.
Так как численность населения падает, даже не смотря на приток эмигрантов!
Русская нация вымирает и вырождается, смешиваясь с эмигрантами!
Факт, что военных и граждан предприятий заставляют голосовать за партию Единая Россия и Путина
ПОД СТРАХОМ УВОЛЬНЕНИЯ!
Нам не нужно Правительство, блокирующее личную жизнь, интернет, нарушающее сохранность данных.
Все эти действия финансируются за счёт народа!