Последняя Граната / The Last Grenade (Гордон Флеминг / Gordon Flemyng) [1970, Великобритания, драма, военный, DVDRip] DVO (НТВ)

Reply to topic
DL-List and Torrent activity
Size:  1.43 GB   |    Registered:  4 years   |    Completed:  0 times

Seeder not seen: Never

 
   
 
 
Author Message

star21 ®

Gender: Female

Longevity: 4 years 1 month

Posts: 551946

Location: Екатеринбург

Post 30-Nov-2015 05:46

[Quote]

Последняя Граната / The Last Grenade
Год выпуска: 1970
Страна: Великобритания
Жанр: драма, военный
Продолжительность: 01:33:50
Перевод: Профессиональный (двухголосый закадровый) - НТВ
Cубтитры: нет
Режиссер: Гордон Флеминг / Gordon Flemyng
В ролях: Стенли Бейкер (Maj. Harry Grigsby), Алекс Корд (Kip Thompson), Онор Блэкман (Katherine Whiteley), Ричард Аттенборо (Gen. Charles Whiteley), Рэфер Джонсон (Joe Jackson), Эндрю Кир (Gordon Mackenzie), Рэй Брукс (Lt. David Coulson), Джулиан Гловер (Andy Royal), Джон Тоу (Terry Mitchell), А.Дж. Браун (Governor)-Мировая премьера: 24 июня 1970-Описание: Два наёмника, бывший майор британской армии Гари Грисби и американец Кип Томпсон вместе воевали в Конго. Но Кип сменил хозяев и чуть не убил Грисби и его людей. Гари посчитал это предательством и не простил его. Находясь в Лондоне на излечении от туберкулёза, Грисби с радостью подписывается на новый контракт – его тайно нанимает английское правительство, чтобы убить Томпсона, который (нанятый китайскими коммунистами) сейчас находится в Гонконге и устраивает пограничные провокации с материковым Китаем, вызывая тем самым политическую напряжённость между Британией и КНР.-Огромная благодарность:
- исходник видео из СГ.
- собственная запись перевода с телеканала НТВ в конце 90-х годов через видеомагнитофон и оцифровка с видеокассеты.
- синхронизация перевода.-Данный фильм вместе с русским переводом на трекере появляется впервые.
На русский язык фильм озвучен корпорацией "Видеофильм" по заказу телекомпании НТВ.
Мужские роли озвучивает Владимир Герасимов.-Рейтинг

MPAA: R - Лицам до 17 лет обязательно присутствие взрослого.-Качество видео: DVDRip
Формат видео: AVI -> //Сэмпл//
Видео: XviD, 720x304 (2.35:1), 23.976 fps, 1977 kbps avg
Аудио:
1 - 48 khz, AC3 Dolby Digital, 2/0 (L,R) ch, ~192 kbps [НТВ] VHSRip

MediaInfo

General
Complete name : E:\Торрент Файлы\Будущие Релизы на Трекере\1.35 - 1.46 и более гб\Последняя Граната (НТВ).avi
Format : AVI
Format/Info : Audio Video Interleave
File size : 1.43 GiB
Duration : 1h 33mn
Overall bit rate : 2 179 Kbps
Writing application : VirtualDubMod 1.5.10.3 | www.virtualdub-fr.org || (build 2550/release)
Writing library : VirtualDubMod build 2550/release
Video
ID : 0
Format : MPEG-4 Visual
Format profile : Advanced Simple@L5
Format settings, BVOP : 1
Format settings, QPel : No
Format settings, GMC : No warppoints
Format settings, Matrix : Custom
Codec ID : XVID
Codec ID/Hint : XviD
Duration : 1h 33mn
Bit rate : 1 977 Kbps
Width : 720 pixels
Height : 304 pixels
Display aspect ratio : 2.35:1
Frame rate : 23.976 fps
Color space : YUV
Chroma subsampling : 4:2:0
Bit depth : 8 bits
Scan type : Progressive
Compression mode : Lossy
Bits/(Pixel*Frame) : 0.377
Stream size : 1.30 GiB (91%)
Writing library : XviD 1.2.1 (UTC 2008-12-04)
Audio
ID : 1
Format : AC-3
Format/Info : Audio Coding 3
Mode extension : CM (complete main)
Format settings, Endianness : Big
Codec ID : 2000
Duration : 1h 33mn
Bit rate mode : Constant
Bit rate : 192 Kbps
Channel(s) : 2 channels
Channel positions : Front: L R
Sampling rate : 48.0 KHz
Compression mode : Lossy
Stream size : 129 MiB (9%)
Alignment : Split accross interleaves
Interleave, duration : 42 ms (1.00 video frame)
Interleave, preload duratio : 500 ms

Скриншот c названием фильма

Скриншоты

To download the content you need:
1. Download and install torrent client [for Windows] or for mobile system
2. Click on [Download]
Attention.
If the test YOU are NOT a ROBOT - does not work, then You are using an outdated browser.
Install the current browser and click on [Download]
Security: torrent client is allowed by Kaspersky.

[en.asmlocator.ru].t3800.torrent 
Torrent: Registered [ 2015-11-30 05:45 ] · E00EF7369F3F000783C4B1C0E0B8C9F0048E2E57

Download .torrent

Download

15 KB

Status: checked
Completed: 0 times
Size: 1.43 GB
terms.php
[Profile] [PM]
Display posts:    
Reply to topic

Current time is: 08-Dec 16:12

All times are UTC ± 0



You cannot post new topics in this forum
You cannot reply to topics in this forum
You cannot edit your posts in this forum
You cannot delete your posts in this forum
You cannot vote in polls in this forum
You cannot attach files in this forum
You can download files in this forum
Верим фактам, а не вранью Путина! Факт, что Правительство ведёт Россию к истреблению.
Так как численность населения падает, даже не смотря на приток эмигрантов!
Русская нация вымирает и вырождается, смешиваясь с эмигрантами!
Факт, что военных и граждан предприятий заставляют голосовать за партию Единая Россия и Путина
ПОД СТРАХОМ УВОЛЬНЕНИЯ!
Нам не нужно Правительство, блокирующее личную жизнь, интернет, нарушающее сохранность данных.
Все эти действия финансируются за счёт народа!