Якудза / The Yakuza (Сидни Поллак / Sidney Pollack) [1974, США, Япония, боевик, триллер, драма, криминал, WEB-DLRip] DVO (НТВ)

Reply to topic
DL-List and Torrent activity
Size:  1.39 GB   |    Registered:  4 years 3 months   |    Completed:  1 time

Seeder not seen: 5 months 9 days

 
   
 
 
Author Message

star21 ®

Gender: Female

Longevity: 4 years 4 months

Posts: 551945

Location: Екатеринбург

Post 30-Nov-2015 05:46

[Quote]

Якудза / The Yakuza
Год выпуска: 1974
Страна: США, Япония
Жанр: боевик, триллер, драма, криминал
Продолжительность: 01:52:14
Перевод: Профессиональный (двухголосый закадровый) - НТВ
Cубтитры: нет
Режиссер: Сидни Поллак / Sidney Pollack
В ролях: Роберт Митчум (Harry Kilmer), Кэн Такакура (Tanaka Ken), Брайан Кит (George Tanner), Херб Эдельман (Wheat), Ричард Джордан (Dusty), Кэйко Киси (Eiko), Эйдзи Окада (Tono), Джеймс Шигета (Goro), Кёскэ Машида (Kato), Кристина Кокубо (Hanako)-Мировая премьера: 28 декабря 1974-Описание: Якудза — это мафия, родившаяся 350 лет назад в Японии, стране, где восходит солнце. О якудзе известно только то, что проникший в ее тайны — обречен. На след якудза вышел американский сыщик, занимающийся делом о похищении дочери миллионера…-Исходник видео: от .-Благодарности:
- собственная запись перевода с телеканала НТВ в конце 90-х годов через видеомагнитофон и оцифровка с видеокассеты.
- синхронизация перевода.-Данный перевод на трекере появляется впервые.
В переводе есть 12 вставок многолосого перевода в эпизодах с речью, которые были пропущены во время записи из за реклам.-На русский язык фильм озвучен телекомпанией НТВ.
Мужские роли озвучивает Борис Токарев.-Рейтинг

MPAA: R - Лицам до 17 лет обязательно присутствие взрослого.-Качество видео: WEB-DLRip
Формат видео: AVI -> //Сэмпл//
Видео: XviD, 720x304 (2.35:1), 23.976 fps, 1573 kbps avg
Аудио:
1 - 48 khz, AC3 Dolby Digital, 2/0 (L,R) ch, ~192 kbps [НТВ] VHSRip

MediaInfo

General
Complete name : E:\Торрент Файлы\Будущие Релизы на Трекере\1.35 - 1.46 и более гб\Якудза (НТВ).avi
Format : AVI
Format/Info : Audio Video Interleave
File size : 1.39 GiB
Duration : 1h 52mn
Overall bit rate : 1 775 Kbps
Writing application : VirtualDubMod 1.5.10.3 | www.virtualdub-fr.org || (build 2550/release)
Writing library : VirtualDubMod build 2550/release
Video
ID : 0
Format : MPEG-4 Visual
Format profile : Advanced Simple@L5
Format settings, BVOP : 1
Format settings, QPel : No
Format settings, GMC : No warppoints
Format settings, Matrix : Custom
Codec ID : XVID
Codec ID/Hint : XviD
Duration : 1h 52mn
Bit rate : 1 573 Kbps
Width : 720 pixels
Height : 304 pixels
Display aspect ratio : 2.35:1
Frame rate : 23.976 fps
Color space : YUV
Chroma subsampling : 4:2:0
Bit depth : 8 bits
Scan type : Progressive
Compression mode : Lossy
Bits/(Pixel*Frame) : 0.300
Stream size : 1.23 GiB (89%)
Writing library : XviD 1.2.1 (UTC 2008-12-04)
Audio
ID : 1
Format : AC-3
Format/Info : Audio Coding 3
Mode extension : CM (complete main)
Format settings, Endianness : Big
Codec ID : 2000
Duration : 1h 52mn
Bit rate mode : Constant
Bit rate : 192 Kbps
Channel(s) : 2 channels
Channel positions : Front: L R
Sampling rate : 48.0 KHz
Compression mode : Lossy
Stream size : 154 MiB (11%)
Alignment : Split accross interleaves
Interleave, duration : 42 ms (1.00 video frame)
Interleave, preload duratio : 500 ms

Скриншот c названием фильма

Скриншоты

To download the content you need:
1. Download and install torrent client [for Windows] or for mobile system
2. Click on [Download]
Attention.
If the test YOU are NOT a ROBOT - does not work, then You are using an outdated browser.
Install the current browser and click on [Download]

Do not work with Yandex browser. Uploading files to them is erroneous.
Security: torrent client is allowed by Kaspersky.

[en.asmlocator.ru].t3799.torrent 
Torrent: Registered [ 2015-11-30 05:45 ] · C6C81A52C3FC8E1EE01C99882040FD762EDF637E

Download .torrent

Download

14 KB

Status: checked
Completed: 1 times
Size: 1.39 GB
terms.php
[Profile] [PM]
Display posts:    
Reply to topic

Current time is: 28-Mar 23:56

All times are UTC ± 0



You cannot post new topics in this forum
You cannot reply to topics in this forum
You cannot edit your posts in this forum
You cannot delete your posts in this forum
You cannot vote in polls in this forum
You cannot attach files in this forum
You can download files in this forum
Верим фактам, а не вранью Путина! Факт, что Правительство ведёт Россию к истреблению.
Так как численность населения падает, даже не смотря на приток эмигрантов!
Русская нация вымирает и вырождается, смешиваясь с эмигрантами!
Факт, что военных и граждан предприятий заставляют голосовать за партию Единая Россия и Путина
ПОД СТРАХОМ УВОЛЬНЕНИЯ!
Нам не нужно Правительство, блокирующее личную жизнь, интернет, нарушающее сохранность данных.
Все эти действия финансируются за счёт народа!