Маленькая принцесса / The Little Princess (Уолтер Лэнг / Walter Lang, Уильям А. Сайтер / William A. Seiter) [1939, США, Мюзикл, драма, комедия, семейный, SATRip] DVO (СВ-дубль)

Reply to topic
DL-List and Torrent activity
Size:  1.46 GB   |    Registered:  4 years   |    Completed:  1 time

Seeder not seen: 1 month 21 day

 
   
 
 
Author Message

star21 ®

Gender: Female

Longevity: 4 years 1 month

Posts: 551946

Location: Екатеринбург

Post 30-Nov-2015 05:46

[Quote]

Маленькая принцесса / The Little Princess
Жанр: Мюзикл, драма, комедия, семейный
Страна: США
Студия: Twentieth Century Fox Film Corporation
Год выпуска: 1939
Продолжительность: 01:29:13.520 (133838 frames)
Перевод: Профессиональный (двухголосый закадровый) - СВ-дубль
Cубтитры: нет
Оригинальная аудиодорожка: нет
Режиссер: Уолтер Лэнг / Walter Lang, Уильям А. Сайтер / William A. Seiter
В ролях:
Ширли Темпл / Shirley Temple ... Sara Crewe
Ричард Грин / Richard Greene ... Geoffrey Hamilton
Анита Луиз / Anita Louise ... Rose Hamilton
Иэн Хантер / Ian Hunter ... Captain Crewe
Сесар Ромеро / Cesar Romero ... Ram Dass, Lord Wickham's Indian Servant
Артур Тричер / Arthur Treacher ... Hubert ‘Bertie’ Minchin
Мэри Нэш / Mary Nash ... Amanda Minchin of Minchin Seminary for Girls
Сибил Джейсон / Sybil Jason ... Becky, Servant at Minchin Seminary
Майлз Мандер / Miles Mander ... Lord Wickham
Марсия Мэй Джонс / Marcia Mae Jones ... Lavinia
Берил Мерсер / Beryl Mercer ... Queen Victoria
Деидре Гэйл / Deidre Gale ... Jessie
Ира Стивенс / Ira Stevens ... Ermengarde
Эйли Мэлион / Eily Malyon ... Cook, Mrs. O'Connell the Cook
Клайд Кук / Clyde Cook ... Hospital Attendant
Описание: По роману Фрэнсис Ходжсон Бёрнетт (Frances Hodgson Burnett).
Конец девятнадцатого века. Англией правит Королева Виктория. Десятилетнюю Сару (Ширли Темпл) воспитывает вдовец – капитан Реджинальд (Иэн Хантер). Отец и дочь очень привязаны друг к другу, но капитана неожиданно направляют на войну в Африку. Перед этим он привозит Сару в самый дорогой пансион для девочек, где ей предстоит получить хорошее образование. Милая, добрая, отзывчивая Сара быстро находит новых подруг, её самостоятельность и уважительное отношение к взрослым и детям покоряют всех, кроме, директрисы заведения – злой Мисс Минчин (Мэри Нэш)...
Дополнительная информация:
Автор рипа: pmv
Большое спасибо за:
- исходник DVB - ItarTass
(Запись потока *.ts со спутника с ТК «Россия-Культура»)
IMDb = 7,3/10 from 3 936 users - [imdb]http://www.imdb.com/title/tt0031580[/imdb]
Кинопоиск = 7.559 (214) - http://www.kinopoisk.ru/level/1/film/20771/
ПРОСЬБА к СКАЧАВШИМ. НЕ УХОДИТЕ С РАЗДАЧИ, ПОМОГИТЕ ДРУГИМ СКАЧАТЬ!!!
На Рутрекере представленная озвучка появляется впервые.
Качество видео: SATRip
Формат видео: AVI
Видео: 720x544 (1.32:1), 25 fps, XviD build 73 ~2199 kbps avg, 0.22 bit/pixel
Аудио: 48 kHz, MPEG Layer 3, 2 ch, ~128.00 kbps avg – двухголосый закадровый СВ-дубль

MediaInfo

General
Complete name : D:\torrents\Маленькая принцесса(Little Princess, The) (1939).avi
Format : AVI
Format/Info : Audio Video Interleave
File size : 1.46 GiB
Duration : 1h 29mn
Overall bit rate : 2 338 Kbps
Writing library : VirtualDub build 35576/release
Video
ID : 0
Format : MPEG-4 Visual
Format profile : Advanced Simple@L5
Format settings, BVOP : Yes
Format settings, QPel : No
Format settings, GMC : No warppoints
Format settings, Matrix : Default (H.263)
Codec ID : XVID
Codec ID/Hint : XviD
Duration : 1h 29mn
Bit rate : 2 200 Kbps
Width : 720 pixels
Height : 544 pixels
Display aspect ratio : 4:3
Frame rate : 25.000 fps
Resolution : 8 bits
Colorimetry : 4:2:0
Scan type : Progressive
Bits/(Pixel*Frame) : 0.225
Stream size : 1.37 GiB (94%)
Writing library : XviD 73
Audio
ID : 1
Format : MPEG Audio
Format version : Version 1
Format profile : Layer 3
Format_Settings_Mode : Joint stereo
Codec ID : 55
Codec ID/Hint : MP3
Duration : 1h 29mn
Bit rate mode : Constant
Bit rate : 128 Kbps
Channel(s) : 2 channels
Sampling rate : 48.0 KHz
Stream size : 81.7 MiB (5%)
Alignment : Split accross interleaves
Interleave, duration : 40 ms (1.00 video frame)
Interleave, preload duration : 500 ms

Скриншот c названием фильма

МОИ РАЗДАЧИ НА РУТРЕКЕРЕ:

To download the content you need:
1. Download and install torrent client [for Windows] or for mobile system
2. Click on [Download]
Attention.
If the test YOU are NOT a ROBOT - does not work, then You are using an outdated browser.
Install the current browser and click on [Download]
Security: torrent client is allowed by Kaspersky.

[en.asmlocator.ru].t3797.torrent 
Torrent: Registered [ 2015-11-30 05:45 ] · 47CF2F0A4572F33D1397BB429D13AEFB93DEC6BD

Download .torrent

Download

15 KB

Status: checked
Completed: 1 times
Size: 1.46 GB
terms.php
[Profile] [PM]
Display posts:    
Reply to topic

Current time is: 10-Dec 09:08

All times are UTC ± 0



You cannot post new topics in this forum
You cannot reply to topics in this forum
You cannot edit your posts in this forum
You cannot delete your posts in this forum
You cannot vote in polls in this forum
You cannot attach files in this forum
You can download files in this forum
Верим фактам, а не вранью Путина! Факт, что Правительство ведёт Россию к истреблению.
Так как численность населения падает, даже не смотря на приток эмигрантов!
Русская нация вымирает и вырождается, смешиваясь с эмигрантами!
Факт, что военных и граждан предприятий заставляют голосовать за партию Единая Россия и Путина
ПОД СТРАХОМ УВОЛЬНЕНИЯ!
Нам не нужно Правительство, блокирующее личную жизнь, интернет, нарушающее сохранность данных.
Все эти действия финансируются за счёт народа!