Hаш весёлый путь / On Our Merry Way (Лесли Фентон / Leslie Fenton, Кинг Видор / King Vidor, Джон Хьюстон / John Huston, Джордж Стивенс / George Stevens) [1948, США, музыкальная комедия, DVDRip] VO (Алексей Яковлев) + Original Eng

Reply to topic
DL-List and Torrent activity
Size:  786 MB   |    Registered:  4 years   |    Completed:  0 times

Seeder not seen: Never

 
   
 
 
Author Message

star21 ®

Gender: Female

Longevity: 4 years 1 month

Posts: 551946

Location: Екатеринбург

Post 30-Nov-2015 05:46

[Quote]

Hаш весёлый путь / On Our Merry Way
Страна: США
Жанр: музыкальная комедия
Год выпуска: 1948
Продолжительность: 01:47:23
Перевод: Одноголосый закадровый -
Cубтитры: русские (на песню, перевод - )
Оригинальная аудиодорожка: английский
Режиссеры: Лесли Фентон / Leslie Fenton, Кинг Видор / King Vidor, Джон Хьюстон / John Huston, Джордж Стивенс / George Stevens
Композитор: Хайнц Рёмхельд / Heinz Roemheld
В ролях: Бёрджесс Мередит / Burgess Meredith ... Oliver M. Pease
Полетт Годдар / Paulette Goddard ... Martha Pease
Джеймс Стюарт / James Stewart ... Slim
Генри Фонда / Henry Fonda ... Lank Solsky
Дороти Ламур / Dorothy Lamour ... Gloria Manners
Фред МакМюррэй / Fred MacMurray ... Al
Виктор Мур / Victor Moore ... Ashton Carrington
Гарри Джеймс / Harry James ... Harry James
Уильям Демарест / William Demarest ... Floyd
Хью Херберт / Hugh Herbert ... Eli Hobbs
Эдуардо Чианнелли / Eduardo Ciannelli ... Maxim
Чарльз Д. Браун / Charles D. Brown ... Mr. Sadd
Дороти Форд / Dorothy Ford ... Lola Maxim
Карл «Алфалфа» Свитцер / Carl «Alfalfa» Switzer (в титрах: Carl Switzer) ... Leopold «Zoot» Wirtz

Описание: Фильм представляет собой альманах из трёх новелл.
Оливер Пис (Бёрджесс Мередит) работает в известной газете обычным служащим, но своей жене Марте (Полетт Годдар) не решается открыть истинное положение вещей, уверяя её, что он вполне уважаемый репортёр. Оливер не подозревает, что Марта уже давно знает всю правду. Желая хоть как-то ускорить карьерный рост мужа, Марта предлагает Оливеру провести на улицах Нью-Йорка опрос случайно встреченных людей на тему: «Какое влияние ребёнок оказал на вашу жизнь?» и рассказанные истории опубликовать в газете. По мнению Марты подобная публикация может иметь успех у читателей, а следовательно поможет карьере Оливера. И вот Оливер, как взаправдашний журналист, начинает интервьюировать каждого, кого встречает на пути. Среди услышанных историй выделяются три — друзей - музыкантов (Джеймс Стюарт и Генри Фонда), звезды (Дороти Ламур) и иллюзиониста (Фред МакМюррэй).

Интересные факты

- Изначально для картины была снята новелла на религиозную тему с участием Чарлза Лоутона в роли священника. Однако, ввиду опасений недовольства американской цензуры, по распоряжению продюсера фильма Бёрджесса Мередита новелла была вырезана из фильма и заменена на новеллу с Дороти Ламур. Известный продюсер Дэвид Селзник успел посмотреть новеллу и предложил Бёрджессу Мередиту выкупить её, чтобы выпустить на экраны как самостоятельный короткометражный фильм. Но Бёрджесс Мередит отказал Селзнику.
Европейским прокатчикам фильм был отправлен ещё до того, как новелла с Чарлзом Лоутоном была удалена. Благодаря этому на выпущенном в Испании ДВД можно увидеть первоначальную версию фильма. Правда уже без альтернативной новеллы с Дороти Ламур.

- Фильм знаменует собой первое совместное появление на экране Джеймса Стюарта и Генри Фонда.

-
-БОЛЬШОЕ СПАСИБО:
Работа со звуком, реавторинг DVD, создание русских субтитров -
Перевод и озвучивание фильма -
Также Большое Спасибо всем, кто принял участие в появлении озвучки к этому фильму:
Магда, Lafajet, jasenka, елена 22, yanaelisa, leoder, HippopotamusIV, sin58, борюська, voostorg, cementit, master-pepper, surzhoks, GalaUkr, keg38, erfv
--------Сэмпл: http://multi-up.com/1067117
Качество видео: DVDRip
Формат видео: AVI
Видео: XviD, 512x384 (4:3), 23.976 fps, 790 Kbps
Аудио 1: MP3, 48.0 KHz, 2 ch., 112 Kbps (русский одноголосый закадровый перевод) - Алексей Яковлев
Аудио 2: MP3, 48.0 KHz, 2 ch., 112 Kbps (оригинальная английская звуковая дорожка, лежит отдельно)
(см. "Программы для работы с контейнерами" - > "VirtualDub" или "AVI-Mux")

MediaInfo

AVI-файл:
Общее
Полное имя : K:\раздачи\On Our Merry Way 1948 700MB\On Our Merry Way.avi
Формат : AVI
Формат/Информация : Audio Video Interleave
Размер файла : 700 Мбайт
Продолжительность : 1 ч. 47 м.
Общий поток : 911 Кбит/сек
Программа кодирования : VirtualDubMod 1.5.10.3 | www.virtualdub-fr.org || (build 2550/release)
Библиотека кодирования : VirtualDubMod build 2550/release
Видео
Идентификатор : 0
Формат : MPEG-4 Visual
Профиль формата : Advanced Simple@L5
Параметр BVOP формата : 2
Параметр QPel формата : Нет
Параметр GMC формата : Без точки перехода
Параметр матрицы формата : Default (H.263)
Идентификатор кодека : DX50
Идентификатор кодека/Подсказка : DivX 5
Продолжительность : 1 ч. 47 м.
Битрейт : 790 Кбит/сек
Ширина : 512 пикселей
Высота : 384 пикселя
Соотношение сторон : 4:3
Частота кадров : 23,976 кадра/сек
Цветовое пространство : YUV
Субдискретизация насыщенности : 4:2:0
Битовая глубина : 8 бит
Тип развёртки : Прогрессивная
Метод сжатия : С потерями
Бит/(Пиксели*Кадры) : 0.167
Размер потока : 606 Мбайт (87%)
Библиотека кодирования : XviD 73
Аудио
Идентификатор : 1
Формат : MPEG Audio
Версия формата : Version 1
Профиль формата : Layer 3
Идентификатор кодека : 55
Идентификатор кодека/Подсказка : MP3
Продолжительность : 1 ч. 47 м.
Вид битрейта : Постоянный
Битрейт : 112 Кбит/сек
Каналы : 2 канала
Частота : 48,0 КГц
Метод сжатия : С потерями
Размер потока : 86,0 Мбайт (12%)
Выравнивание : Соединение по промежуткам
Продолжительность промежутка : 42 мс. (1,00 видеокадр)
Время предзагрузки промежутка : 504 мс.
Библиотека кодирования : LAME3.99r
Настройки программы : -m s -V 4 -q 0 -lowpass 15.6 -b 112
английская оригинальная дорожка, лежит отдельно:
Общее
Полное имя : K:\раздачи\On Our Merry Way 1948 700MB\On Our Merry Way.ENG.mp3
Формат : MPEG Audio
Размер файла : 86,0 Мбайт
Продолжительность : 1 ч. 47 м.
Режим общего битрейта : Постоянный
Общий поток : 112 Кбит/сек
Библиотека кодирования : LAME3.99r
Аудио
Формат : MPEG Audio
Версия формата : Version 1
Профиль формата : Layer 3
Продолжительность : 1 ч. 47 м.
Вид битрейта : Постоянный
Битрейт : 112 Кбит/сек
Каналы : 2 канала
Частота : 48,0 КГц
Метод сжатия : С потерями
Размер потока : 86,0 Мбайт (100%)
Библиотека кодирования : LAME3.99r
Настройки программы : -m s -V 4 -q 0 -lowpass 15.6 -b 112

Исходник

To download the content you need:
1. Download and install torrent client [for Windows] or for mobile system
2. Click on [Download]
Attention.
If the test YOU are NOT a ROBOT - does not work, then You are using an outdated browser.
Install the current browser and click on [Download]
Security: torrent client is allowed by Kaspersky.

[en.asmlocator.ru].t3795.torrent 
Torrent: Registered [ 2015-11-30 05:45 ] · CC593596AD65DC836F2DE42E5EA634FB030B4B60

Download .torrent

Download

16 KB

Status: checked
Completed: 0 times
Size: 786 MB
terms.php
[Profile] [PM]
Display posts:    
Reply to topic

Current time is: 05-Dec 14:51

All times are UTC ± 0



You cannot post new topics in this forum
You cannot reply to topics in this forum
You cannot edit your posts in this forum
You cannot delete your posts in this forum
You cannot vote in polls in this forum
You cannot attach files in this forum
You can download files in this forum
Верим фактам, а не вранью Путина! Факт, что Правительство ведёт Россию к истреблению.
Так как численность населения падает, даже не смотря на приток эмигрантов!
Русская нация вымирает и вырождается, смешиваясь с эмигрантами!
Факт, что военных и граждан предприятий заставляют голосовать за партию Единая Россия и Путина
ПОД СТРАХОМ УВОЛЬНЕНИЯ!
Нам не нужно Правительство, блокирующее личную жизнь, интернет, нарушающее сохранность данных.
Все эти действия финансируются за счёт народа!