Как дела, молодой человек? / Hogy állunk, fiatalember? (Дьёрдь Ревес / György Révész) [1963, Венгрия, драма, TVRip] VO Анатолий Гусев

Reply to topic
DL-List and Torrent activity
Size:  1018 MB   |    Registered:  4 years   |    Completed:  0 times

Seeder not seen: Never

 
   
 
 
Author Message

star21 ®

Gender: Female

Longevity: 4 years 1 month

Posts: 551946

Location: Екатеринбург

Post 30-Nov-2015 05:46

[Quote]

Как дела, молодой человек? / Hogy állunk, fiatalember? Год выпуска: 1963.
Страна: Венгрия .
Жанр: драма.
Продолжительность: 01:17:55.
Перевод: Одноголосый закадровый Анатолий Гусев.
Субтитры: нет.
Оригинальная аудио дорожка: венгерский.
Режиссер: Дьёрдь Ревес / György Révész.
В ролях:
Балаж Костоланьи, Клари Тольнаи, Ференц Каллаи, Шандор Печи, Тери Фёльди, Габор Агарди, Дежё Гараш, Кати Дудаш.
Описание:
Андриш хочет добиться доверия со стороны своих родителей, он нуждается в их поддержке, но отец занят проблемами, связанными с работой. Он должен принять решение по делу о коррупции, вскрытой на предприятии. Скрыть или придать огласке то, что случилось? Разговор между отцом и сыном заканчивается ссорой, но, в конце концов, отец всё же отдаёт предпочтение справедливому решению, он разоблачает злоупотребление служебным положением.
Фильм заглядывает в духовный мир юноши, отражая восприятие им мира взрослых и ставя острые проблемы воспитания характера, формирования личности в семье и обществе. Душа юного героя открыта всему окружающему, и, несмотря на внешнюю грубость, он нежен и привязчив; жизнь то и дело больно ранит подростка в те минуты, когда он этого меньше всего ожидает

Доп. информация:
Фильм снят по одноименному произведению, был в советском прокате.
Киностудии: Hunnia Filmstúdió.
Автор сценария: Шандор Шомодьи Тот.
Оператор: Ференц Сеченьи.
Композитор: Саболч Феньеш.
Художники: Йожеф Ромвари, Жажа Лазар, Ласло Шимон...
Премьера: 12 сентября 1963 года.

Плакат

Перевод: Анатолий Гусев.
Сведение звука: Артвидео.
Организация перевода: Minhers76.
Видеофайл предоставил Johnnyleo.
Большое спасибо всем!!!


Качество: TVRip
Формат: AVI
Видео: 720x576 (1.25:1), 25 fps, DivX Codec 6.5.1 ~1299 kbps avg, 0.13 bit/pixel
Аудио: # 1 - 48 kHz, MPEG Layer 3, 2 ch, ~192.00 kbps avg - русский
..................# 2 - 48 kHz, MPEG Layer 3, 2 ch, ~320.00 kbps avg - венгерский

Отчет Media Info

Общее
Полное имя : Kak.dela.molodoj.chelovek.1963.DivX.TVRip.avi
Format : AVI
Format/Info : Audio Video Interleave
File size : 1 018 MiB
Duration : 1h 17mn
Overall bit rate : 1 827 Kbps
Writing application : VirtualDubMod 1.5.10.2 (build 2540/release)
Writing library : VirtualDubMod build 2540/release
Video
ID : 0
Format : MPEG-4 Visual
Format settings, BVOP : 1
Format settings, QPel : No
Format settings, GMC : No warppoints
Format settings, Matrix : Default (H.263)
Muxing mode : Packed bitstream
Codec ID : DX50
Codec ID/Hint : DivX 5
Duration : 1h 17mn
Bit rate : 1 301 Kbps
Width : 720 pixels
Height : 576 pixels
Display aspect ratio : 5:4
Frame rate : 25.000 fps
Standard : PAL
Color space : YUV
Chroma subsampling : 4:2:0
Bit depth : 8 bits
Scan type : Progressive
Compression mode : Lossy
Bits/(Pixel*Frame) : 0.125
Stream size : 725 MiB (71%)
Writing library : DivX 6.5.1 (UTC 2007-03)
Audio #1
ID : 1
Format : MPEG Audio
Format version : Version 1
Format profile : Layer 3
Mode : Joint stereo
Mode extension : MS Stereo
Codec ID : 55
Codec ID/Hint : MP3
Duration : 1h 17mn
Bit rate mode : Constant
Bit rate : 192 Kbps
Channel(s) : 2 channels
Sampling rate : 48.0 KHz
Compression mode : Lossy
Stream size : 107 MiB (11%)
Alignment : Aligned on interleaves
Interleave, duration : 40 ms (1.00 video frame)
Interleave, preload duratio : 504 ms
Audio #2
ID : 2
Format : MPEG Audio
Format version : Version 1
Format profile : Layer 3
Mode : Joint stereo
Codec ID : 55
Codec ID/Hint : MP3
Duration : 1h 17mn
Bit rate mode : Constant
Bit rate : 320 Kbps
Channel(s) : 2 channels
Sampling rate : 48.0 KHz
Compression mode : Lossy
Stream size : 178 MiB (18%)
Alignment : Split accross interleaves
Interleave, duration : 40 ms (1.00 video frame)
Interleave, preload duratio : 500 ms
Writing library : LAME3.97 (beta)

Скриншоты


Альтернативный хост


To download the content you need:
1. Download and install torrent client [for Windows] or for mobile system
2. Click on [Download]
Attention.
If the test YOU are NOT a ROBOT - does not work, then You are using an outdated browser.
Install the current browser and click on [Download]
Security: torrent client is allowed by Kaspersky.

[en.asmlocator.ru].t3794.torrent 
Torrent: Registered [ 2015-11-30 05:45 ] · 0D79DAEDA41C68A45A5A66E3065E08B928385528

Download .torrent

Download

20 KB

Status: checked
Completed: 0 times
Size: 1018 MB
terms.php
[Profile] [PM]
Display posts:    
Reply to topic

Current time is: 12-Dec 04:14

All times are UTC ± 0



You cannot post new topics in this forum
You cannot reply to topics in this forum
You cannot edit your posts in this forum
You cannot delete your posts in this forum
You cannot vote in polls in this forum
You cannot attach files in this forum
You can download files in this forum
Верим фактам, а не вранью Путина! Факт, что Правительство ведёт Россию к истреблению.
Так как численность населения падает, даже не смотря на приток эмигрантов!
Русская нация вымирает и вырождается, смешиваясь с эмигрантами!
Факт, что военных и граждан предприятий заставляют голосовать за партию Единая Россия и Путина
ПОД СТРАХОМ УВОЛЬНЕНИЯ!
Нам не нужно Правительство, блокирующее личную жизнь, интернет, нарушающее сохранность данных.
Все эти действия финансируются за счёт народа!