Подозрение / Il sospetto (Франческо Мазелли / Francesco Maselli) [1974, Италия, драма, политика, TVRip] Sub Rus + Original Ita

Reply to topic
DL-List and Torrent activity
Size:  832 MB   |    Registered:  4 years   |    Completed:  0 times

Seeder not seen: Never

 
   
 
 
Author Message

star21 ®

Gender: Female

Longevity: 4 years 1 month

Posts: 551946

Location: Екатеринбург

Post 30-Nov-2015 05:46

[Quote]

Подозрение / Il sospetto Страна: Италия
Жанр: драма, политика
Год выпуска: 1974
Продолжительность: 01:45:55
Перевод: Субтитры Северный
Cубтитры: русские
Оригинальная аудиодорожка: итальянский
Режиссер: Франческо Мазелли / Francesco Maselli
В ролях: Джан Мария Волонте, Анни Жирардо, Ренато Сальватори, Габриэле Лавиа, Бруно Кораццари, Гуидо Де Карли, Феличе Андреази, Антонио Казале, Даниэле Дублино, Пьетро Бионди
Описание: Италия, Турин, 1934-ый год. Группа коммунистов-подпольщиков пытается вычислить предателя в своих рядах.
Сэмпл: http://multi-up.com/1067242
Качество видео: TVRip
Формат видео: AVI
Видео: 624x352 (1.77:1), 25 fps, DivX Codec 5.x or 6.x ~896 kbps avg, 0.16 bit/pixel
Аудио: 48 kHz, MPEG Layer 3, 2 ch, ~192.00 kbps avg
Формат субтитров: softsub (SRT)

MediaInfo

Format : AVI
Format/Info : Audio Video Interleave
File size : 832 MiB
Duration : 1h 45mn
Overall bit rate : 1 099 Kbps
Video
ID : 0
Format : MPEG-4 Visual
Format profile : Advanced Simple@L1
Format settings, BVOP : 1
Format settings, QPel : No
Format settings, GMC : No warppoints
Format settings, Matrix : Default (H.263)
Codec ID : DX50
Codec ID/Hint : DivX 5
Duration : 1h 45mn
Bit rate : 897 Kbps
Width : 624 pixels
Height : 352 pixels
Display aspect ratio : 16:9
Frame rate : 25.000 fps
Color space : YUV
Chroma subsampling : 4:2:0
Bit depth : 8 bits
Scan type : Progressive
Compression mode : Lossy
Bits/(Pixel*Frame) : 0.163
Stream size : 680 MiB (82%)
Writing library : Lavc53.6.0
Audio
ID : 1
Format : MPEG Audio
Format version : Version 1
Format profile : Layer 3
Mode : Joint stereo
Mode extension : MS Stereo
Codec ID : 55
Codec ID/Hint : MP3
Duration : 1h 45mn
Bit rate mode : Constant
Bit rate : 192 Kbps
Channel(s) : 2 channels
Sampling rate : 48.0 KHz
Compression mode : Lossy
Stream size : 145 MiB (17%)
Alignment : Split accross interleaves
Interleave, duration : 40 ms (1.00 video frame)
Interleave, preload duration : 500 ms
Writing library : LAME

Скриншот c названием фильма

Пример субтитров

1
00:00:09,928 --> 00:00:14,048
<b>Подозрение</b>
2
00:02:45,051 --> 00:02:48,579
Турин, 1934
3
00:03:01,738 --> 00:03:03,448
Ещё четверо, пожалуйста.
4
00:03:05,090 --> 00:03:08,634
- Простите, это выход на площадь?
- Да, правильно.
5
00:03:09,179 --> 00:03:10,131
Спасибо.
6
00:03:55,969 --> 00:03:57,079
Билеты!
7
00:05:55,956 --> 00:05:57,984
Браво!
8
00:07:24,697 --> 00:07:27,260
- Добрый вечер, синьор.
- Куда поедем?
9
00:07:27,938 --> 00:07:30,435
Куда угодно. Не люблю оперу.
10
00:07:30,676 --> 00:07:32,772
Все звучат одинаково. Похожи на овец.
11
00:07:33,310 --> 00:07:37,051
Не знаю насчёт оперы,
но все овцы разные.
12
00:07:37,945 --> 00:07:39,750
Однако все они блеют.
13
00:07:55,255 --> 00:07:56,161
До свидания.
14
00:07:56,281 --> 00:07:58,287
Мы тебя уже не ждали.
15
00:07:58,407 --> 00:08:01,845
Джакомо приходит на вокзал в 8-00 уже три дня подряд, перед Кобьянки.
16
00:08:01,965 --> 00:08:03,652
Сегодня там был полицейский.
17
00:08:03,772 --> 00:08:04,636
Ты уверен?
18
00:08:04,661 --> 00:08:07,252
Вполне уверен, пора
переходить к запасному плану.
19
00:08:07,389 --> 00:08:10,949
- Я нашёл письмо, но...
- В Турине ситуация стала напряжённой.
20
00:08:11,069 --> 00:08:14,143
Как и повсюду. Я начинал в Трапани...
21
00:08:14,263 --> 00:08:17,374
Центральный комитет в Париже
должен принять это во внимание.
Огромное спасибо Северному за перевод фильма!

To download the content you need:
1. Download and install torrent client [for Windows] or for mobile system
2. Click on [Download]
Attention.
If the test YOU are NOT a ROBOT - does not work, then You are using an outdated browser.
Install the current browser and click on [Download]
Security: torrent client is allowed by Kaspersky.

[en.asmlocator.ru].t3792.torrent 
Torrent: Registered [ 2015-11-30 05:45 ] · AC33A56E8740A0618F21BE871EB90A920748FBF6

Download .torrent

Download

17 KB

Status: checked
Completed: 0 times
Size: 832 MB
terms.php
[Profile] [PM]
Display posts:    
Reply to topic

Current time is: 12-Dec 15:41

All times are UTC ± 0



You cannot post new topics in this forum
You cannot reply to topics in this forum
You cannot edit your posts in this forum
You cannot delete your posts in this forum
You cannot vote in polls in this forum
You cannot attach files in this forum
You can download files in this forum
Верим фактам, а не вранью Путина! Факт, что Правительство ведёт Россию к истреблению.
Так как численность населения падает, даже не смотря на приток эмигрантов!
Русская нация вымирает и вырождается, смешиваясь с эмигрантами!
Факт, что военных и граждан предприятий заставляют голосовать за партию Единая Россия и Путина
ПОД СТРАХОМ УВОЛЬНЕНИЯ!
Нам не нужно Правительство, блокирующее личную жизнь, интернет, нарушающее сохранность данных.
Все эти действия финансируются за счёт народа!