Баллада о Джози / The Ballad of Josie (Эндрю В. МакЛаглен / Andrew V. McLaglen) [1967, США, вестерн, DVDRip] VO (binjak)

Reply to topic
DL-List and Torrent activity
Size:  1.37 GB   |    Registered:  4 years   |    Completed:  0 times

Seeder not seen: Never

 
   
 
 
Author Message

star21 ®

Gender: Female

Longevity: 4 years 1 month

Posts: 551946

Location: Екатеринбург

Post 30-Nov-2015 05:46

[Quote]

Баллада о Джози / The Ballad of Josie Страна: США
Жанр: вестерн
Год выпуска: 1967
Продолжительность: 01:37:56
Перевод: Одноголосый закадровый binjak
Cубтитры: нет
Оригинальная аудиодорожка: нет
Режиссер: Эндрю В. МакЛаглен / Andrew V. McLaglen
В ролях: Дорис Дэй, Питер Грэйвз, Джордж Кеннеди, Энди Дивайн, Уильям Тэлман, Дэвид Хартман мл., Гай Рэймонд, Одри Кристи, Карен Дженсен мл., Элизабет Фрайзер, Ширли О'Хара мл., Тимоти Скотт ст., Дон Страуд, Пол Фикс, Гарри Кэри мл., Джон Фидлер, Роберт Лоури, Тедди Куинн, Майк Лэлли, Майк Лэлли
Описание: Дикий Запад конца XIX-го века. Джози Миник (Дорис Дэй) после смерти мужа-пропойцы теряет всякую надежду найти работу. Она решает попробовать свои силы в скотоводстве, вложив в этот бизнес все деньги, полученные по страховке. Однако дело происходит на территории Вайоминг, территории, где скотоводство традиционно считается сугубо мужским занятием. Для защиты своих прав Джози вынуждена ввязаться в настоящую войну...
Доп. информация: Собственный рип.
Сэмпл: http://multi-up.com/1067305
Качество видео: DVDRip
Формат видео: AVI
Видео: XviD, 704x304 (2.35:1), 23.976 fps, 1804 kbps avg
Аудио: Russian AC3 Dolby Digital, 48 kHz, 2/0 (L,R) ch, 192.00 kbps avg

MediaInfo

General
Complete name : F:\The Ballad Of Josie.1967\The Ballad Of Josie.1967.DVDRip.VO.avi
Format : AVI
Format/Info : Audio Video Interleave
File size : 1.37 GiB
Duration : 1h 37mn
Overall bit rate : 2 007 Kbps
Writing application : VirtualDubMod 1.5.10.3 | www.virtualdub-fr.org || (build 2550/release)
Writing library : VirtualDubMod build 2550/release
Video
ID : 0
Format : MPEG-4 Visual
Format profile : Advanced Simple@L5
Format settings, BVOP : 1
Format settings, QPel : No
Format settings, GMC : No warppoints
Format settings, Matrix : Default (MPEG)
Codec ID : XVID
Codec ID/Hint : XviD
Duration : 1h 37mn
Bit rate : 1 805 Kbps
Width : 704 pixels
Height : 304 pixels
Display aspect ratio : 2.35:1
Frame rate : 25.000 fps
Color space : YUV
Chroma subsampling : 4:2:0
Bit depth : 8 bits
Scan type : Progressive
Compression mode : Lossy
Bits/(Pixel*Frame) : 0.337
Stream size : 1.23 GiB (90%)
Writing library : XviD 73
Audio
ID : 1
Format : AC-3
Format/Info : Audio Coding 3
Mode extension : CM (complete main)
Format settings, Endianness : Big
Codec ID : 2000
Duration : 1h 37mn
Bit rate mode : Constant
Bit rate : 192 Kbps
Channel(s) : 2 channels
Channel positions : Front: L R
Sampling rate : 48.0 KHz
Compression mode : Lossy
Stream size : 134 MiB (10%)
Alignment : Split accross interleaves
Interleave, duration : 40 ms (1.00 video frame)
Interleave, preload duratio : 500 ms

Скриншоты

To download the content you need:
1. Download and install torrent client [for Windows] or for mobile system
2. Click on [Download]
Attention.
If the test YOU are NOT a ROBOT - does not work, then You are using an outdated browser.
Install the current browser and click on [Download]
Security: torrent client is allowed by Kaspersky.

[en.asmlocator.ru].t3790.torrent 
Torrent: Registered [ 2015-11-30 05:45 ] · BED7B8E251C0A3390D10124310C211BF487443A3

Download .torrent

Download

14 KB

Status: checked
Completed: 0 times
Size: 1.37 GB
terms.php
[Profile] [PM]
Display posts:    
Reply to topic

Current time is: 15-Dec 00:23

All times are UTC ± 0



You cannot post new topics in this forum
You cannot reply to topics in this forum
You cannot edit your posts in this forum
You cannot delete your posts in this forum
You cannot vote in polls in this forum
You cannot attach files in this forum
You can download files in this forum
Верим фактам, а не вранью Путина! Факт, что Правительство ведёт Россию к истреблению.
Так как численность населения падает, даже не смотря на приток эмигрантов!
Русская нация вымирает и вырождается, смешиваясь с эмигрантами!
Факт, что военных и граждан предприятий заставляют голосовать за партию Единая Россия и Путина
ПОД СТРАХОМ УВОЛЬНЕНИЯ!
Нам не нужно Правительство, блокирующее личную жизнь, интернет, нарушающее сохранность данных.
Все эти действия финансируются за счёт народа!