Сумей сквозь тучи солнце разглядеть / Ища серебряную подкладку / Look for the Silver Lining (Дэвид Батлер / David Butler) [1949, США, мюзикл, драма, мелодрама, DVDRip] VO (Владимир Воронцов (-Доцент-)) + Original Eng

Reply to topic
DL-List and Torrent activity
Size:  1.59 GB   |    Registered:  4 years   |    Completed:  0 times

Seeder not seen: Never

 
   
 
 
Author Message

star21 ®

Gender: Female

Longevity: 4 years 1 month

Posts: 551946

Location: Екатеринбург

Post 30-Nov-2015 05:46

[Quote]

Сумей сквозь тучи солнце разглядеть / Ища серебряную подкладку / Look for the Silver Lining
Страна: США
Жанр: мюзикл, драма, мелодрама
Год выпуска: 1949
Продолжительность: 01:42:01
Перевод: Одноголосый закадровый -
Cубтитры: русские (на песни)
Оригинальная аудиодорожка: английский
Режиссер: Дэвид Батлер / David Butler
Композитор: Дэвид Баттолф / David Buttolph
В ролях: Джун Хэвер / June Haver ... Marilyn Miller
Рэй Болджер / Ray Bolger ... Jack Donahue
Гордон МакРэй / Gordon MacRae ... Frank Carter
Чарльз Рагглз / Charles Ruggles ... Caro «Pop» Miller
Розмари ДеКамп / Rosemary DeCamp ... Mama Miller
Ли Вильде / Lee Wilde ... Claire Miller
Лин Вильде / Lyn Wilde ... Ruth Miller
Дик Симмонс / Dick Simmons ... Henry Doran
Ш.З. Шакалль / S.Z. Sakall ... Shendorf
Уолтер Кэтлетт / Walter Catlett ... Walter Catlett
Джордж Зорич / George Zoritch ... Ballet Specialty

Описание: Это музыкальный байопик звезды 20-х годов Мэрилин Миллер, которая проделала путь от подмостков в Финдли, штат Огайо, до Бродвея. На пути к славе она всегда могла рассчитывать на поддержку своего наставника – танцора Джека Донахью.--БОЛЬШОЕ СПАСИБО:
Перевод и озвучивание фильма -
Работа со звуком и реавторинг DVD -
Также Большое Спасибо всем, кто принял участие в появлении озвучки к этому фильму:
Магда, Lafajet, jasenka, елена 22, yanaelisa, surzhoks, leoder, neddgu, Ugo927, sin58, Patsy+, keg38, Simpun, voostorg, mumzik69, mangust1, борюська, Догаресса
--Сэмпл: http://multi-up.com/1067606
Качество видео: DVDRip
Формат видео: AVI
Видео: XviD, 640x480 (4:3), 23.976 fps, 1842 Kbps
Аудио 1: AC3, 48.0 KHz, 2 ch., 192 Kbps (русский одноголосый закадровый перевод) - Владимир Воронцов (-Доцент-)
Аудио 2: AC3, 48.0 KHz, 2 ch., 192 Kbps (оригинальная английская звуковая дорожка, лежит отдельно)
(см. "Программы для работы с контейнерами" - > "VirtualDub" или "AVI-Mux")

MediaInfo

AVI-файл:
Общее
Полное имя : F:\раздачи\Look for the Silver Lining 1949\Look for the Silver Lining.avi
Формат : AVI
Формат/Информация : Audio Video Interleave
Размер файла : 1,46 Гбайт
Продолжительность : 1 ч. 42 м.
Общий поток : 2043 Кбит/сек
Программа кодирования : VirtualDubMod 1.5.10.3 | www.virtualdub-fr.org || (build 2550/release)
Библиотека кодирования : VirtualDubMod build 2550/release
Видео
Идентификатор : 0
Формат : MPEG-4 Visual
Профиль формата : Advanced Simple@L5
Параметр BVOP формата : 2
Параметр QPel формата : Нет
Параметр GMC формата : Без точки перехода
Параметр матрицы формата : Default (H.263)
Идентификатор кодека : DX50
Идентификатор кодека/Подсказка : DivX 5
Продолжительность : 1 ч. 42 м.
Битрейт : 1842 Кбит/сек
Ширина : 640 пикселей
Высота : 480 пикселей
Соотношение сторон : 4:3
Частота кадров : 23,976 кадра/сек
Цветовое пространство : YUV
Субдискретизация насыщенности : 4:2:0
Битовая глубина : 8 бит
Тип развёртки : Прогрессивная
Метод сжатия : С потерями
Бит/(Пиксели*Кадры) : 0.250
Размер потока : 1,31 Гбайт (90%)
Библиотека кодирования : XviD 73
Аудио
Идентификатор : 1
Формат : AC-3
Формат/Информация : Audio Coding 3
Расширение режима : CM (complete main)
Параметр Endianness формата : Big
Идентификатор кодека : 2000
Продолжительность : 1 ч. 42 м.
Вид битрейта : Постоянный
Битрейт : 192 Кбит/сек
Каналы : 2 канала
Расположение каналов : Front: L R
Частота : 48,0 КГц
Битовая глубина : 16 бит
Метод сжатия : С потерями
Размер потока : 140 Мбайт (9%)
Выравнивание : Разделение по промежуткам
Продолжительность промежутка : 42 мс. (1,00 видеокадр)
Время предзагрузки промежутка : 500 мс.
английская оригинальная звуковая дорожка, лежит отдельно:
Общее
Полное имя : F:\раздачи\Look for the Silver Lining 1949\Look for the Silver Lining.ENG.ac3
Формат : AC-3
Формат/Информация : Audio Coding 3
Размер файла : 140 Мбайт
Продолжительность : 1 ч. 42 м.
Режим общего битрейта : Постоянный
Общий поток : 192 Кбит/сек
Аудио
Формат : AC-3
Формат/Информация : Audio Coding 3
Расширение режима : CM (complete main)
Параметр Endianness формата : Big
Продолжительность : 1 ч. 42 м.
Вид битрейта : Постоянный
Битрейт : 192 Кбит/сек
Каналы : 2 канала
Расположение каналов : Front: L R
Частота : 48,0 КГц
Битовая глубина : 16 бит
Метод сжатия : С потерями
Размер потока : 140 Мбайт (100%)

Исходник

To download the content you need:
1. Download and install torrent client [for Windows] or for mobile system
2. Click on [Download]
Attention.
If the test YOU are NOT a ROBOT - does not work, then You are using an outdated browser.
Install the current browser and click on [Download]
Security: torrent client is allowed by Kaspersky.

[en.asmlocator.ru].t3786.torrent 
Torrent: Registered [ 2015-11-30 05:45 ] · 0580F584AD5FCE759E214C69A70B401CC76B7508

Download .torrent

Download

17 KB

Status: checked
Completed: 0 times
Size: 1.59 GB
terms.php
[Profile] [PM]
Display posts:    
Reply to topic

Current time is: 12-Dec 03:06

All times are UTC ± 0



You cannot post new topics in this forum
You cannot reply to topics in this forum
You cannot edit your posts in this forum
You cannot delete your posts in this forum
You cannot vote in polls in this forum
You cannot attach files in this forum
You can download files in this forum
Верим фактам, а не вранью Путина! Факт, что Правительство ведёт Россию к истреблению.
Так как численность населения падает, даже не смотря на приток эмигрантов!
Русская нация вымирает и вырождается, смешиваясь с эмигрантами!
Факт, что военных и граждан предприятий заставляют голосовать за партию Единая Россия и Путина
ПОД СТРАХОМ УВОЛЬНЕНИЯ!
Нам не нужно Правительство, блокирующее личную жизнь, интернет, нарушающее сохранность данных.
Все эти действия финансируются за счёт народа!