Бандолеро! / Bandolero! (Эндрю В. МакЛаглен / Andrew V. McLaglen) [1968, США, Вестерн, DVDRip] MVO

Reply to topic
DL-List and Torrent activity
Size:  744 MB   |    Registered:  4 years   |    Completed:  0 times

Seeder not seen: Never

 
   
 
 
Author Message

star21 ®

Gender: Female

Longevity: 4 years 1 month

Posts: 551946

Location: Екатеринбург

Post 30-Nov-2015 05:45

[Quote]

Бандолеро! / Bandolero!
Год выпуска: 1968
Страна: США
Жанр: Вестерн
Продолжительность: 01:42:05.279 (153132 frames)
Перевод: Профессиональный (многоголосый, закадровый)
Русские субтитры: нет
Режиссер: Эндрю В. МакЛаглен / Andrew V. McLaglen
В ролях: Джеймс Стюарт /James Stewart/, Дин Мартин /Dean Martin/, Ракел Уэлч /Raquel Welch/, Джордж Кеннеди /George Kennedy/, Эндрю Прайн /Andrew Prine/, Уилл Джир /Will Geer/
Описание: Ди - крепкий парень вне закона. Он со своим приятелем решает ограбить банк в маленьком техасском городке. Во время налета в перестрелке один из них убивает богатого владельца местного ранчо. Полиция арестовывает грабителей и приговаривает их к смертной казни через повешение. Узнав о случившимся брат Ди, с намерением освободить "бригаду", прибывает в город под видом палача. При побеге они берут в заложники девушку по имени Мария. Шериф этого городка Джонсон клянется во чтобы-то ни стало поймать преступников и бросается в погоню. Но мексиканское солнце улыбается не всем. Когда до границы остается буквально полмили, путь беглецам преграждает шайка жестоких мексиканских бандолеро.
Качество: DVDRip
Формат: AVI
Видео кодек: XviD
Аудио кодек: MP3
Видео: 640x480 (1.33:1), 25 fps, XviD MPEG-4 ~881 kbps avg, 0.11 bit/pixel
Аудио: 48 kHz, MPEG Layer 3, 2 ch, ~128.00 kbps avg

Скриншоты

Медиаинфо

General
Complete name : D:\001 МОИ РАЗДАЧИ\Бандолеро 745\bandolero_745_[torrents.ru]_by_bm11.avi
Format : AVI
Format/Info : Audio Video Interleave
File size : 744 MiB
Duration : 1h 42mn
Overall bit rate : 1 019 Kbps
Writing application : VirtualDubMod 1.5.10.2 (build 2540/release)
Writing library : VirtualDubMod build 2540/release
Video
Format : MPEG-4 Visual
Format profile : Streaming Video@L1
Format settings, BVOP : Yes
Format settings, QPel : No
Format settings, GMC : No warppoints
Format settings, Matrix : Custom
Codec ID : XVID
Codec ID/Hint : XviD
Duration : 1h 42mn
Bit rate : 882 Kbps
Width : 640 pixels
Height : 480 pixels
Display aspect ratio : 4/3
Frame rate : 25.000 fps
Resolution : 24 bits
Colorimetry : 4:2:0
Scan type : Progressive
Bits/(Pixel*Frame) : 0.115
Stream size : 644 MiB (86%)
Writing library : XviD 63
Audio
Format : MPEG Audio
Format version : Version 1
Format profile : Layer 3
Codec ID : 55
Codec ID/Hint : MP3
Duration : 1h 42mn
Bit rate mode : Constant
Bit rate : 128 Kbps
Channel(s) : 2 channels
Sampling rate : 48.0 KHz
Resolution : 16 bits
Stream size : 93.5 MiB (13%)
Alignment : Aligned on interleaves
Interleave, duration : 40 ms (1.00 video frame)
Interleave, preload duration : 504 ms
Релиз группы:--

To download the content you need:
1. Download and install torrent client [for Windows] or for mobile system
2. Click on [Download]
Attention.
If the test YOU are NOT a ROBOT - does not work, then You are using an outdated browser.
Install the current browser and click on [Download]
Security: torrent client is allowed by Kaspersky.

[en.asmlocator.ru].t3785.torrent 
Torrent: Registered [ 2015-11-30 05:45 ] · EB475853E1D64875EF12B0A77CCFC28ECE7D5EEE

Download .torrent

Download

15 KB

Status: checked
Completed: 0 times
Size: 744 MB
terms.php
[Profile] [PM]
Display posts:    
Reply to topic

Current time is: 09-Dec 05:12

All times are UTC ± 0



You cannot post new topics in this forum
You cannot reply to topics in this forum
You cannot edit your posts in this forum
You cannot delete your posts in this forum
You cannot vote in polls in this forum
You cannot attach files in this forum
You can download files in this forum
Верим фактам, а не вранью Путина! Факт, что Правительство ведёт Россию к истреблению.
Так как численность населения падает, даже не смотря на приток эмигрантов!
Русская нация вымирает и вырождается, смешиваясь с эмигрантами!
Факт, что военных и граждан предприятий заставляют голосовать за партию Единая Россия и Путина
ПОД СТРАХОМ УВОЛЬНЕНИЯ!
Нам не нужно Правительство, блокирующее личную жизнь, интернет, нарушающее сохранность данных.
Все эти действия финансируются за счёт народа!