Выхода нет / No Way Out (Джозеф Лео Манкевич / Joseph L. Mankiewicz) [1950, США, драма, DVDRip] Sub Rus, Eng + Original Eng

Reply to topic
DL-List and Torrent activity
Size:  1.46 GB   |    Registered:  4 years 7 months   |    Completed:  0 times

Seeder not seen: Never

 
   
 
 
Author Message

star21 ®

Gender: Female

Longevity: 4 years 8 months

Posts: 551945

Location: Екатеринбург

Post 30-Nov-2015 05:45

[Quote]

Выхода нет / No Way Out
Страна: США
Жанр: драма
Год выпуска: 1950
Продолжительность: 01:46:38
Перевод: Субтитры - Егоров С.Б.
Cубтитры: русские, английские
Оригинальная аудиодорожка: английский

Режиссер: Джозеф Лео Манкевич / Joseph L. Mankiewicz
В ролях: Ричард Уидмарк, Линда Дарнелл, Стефен МакНалли, Сидни Пуатье, Милдред Джоэнн Смит, Гарри Беллэвер, Стэнли Риджес, Дотс Джонсон, Боб Адлер, Эрнест Андерсон
Описание: Братья Биддл ранены в ноги при ограблении бензоколонки. После ареста их доставляют в тюремное отделение окружной больницы. Рей Биддл, бешеный расист, не желает получать медицинскую помощь от чернокожего доктора Лютера Брукса. При оказании помощи брат Джон умирает. Рей обвиняет Брукса в преднамеренном убийстве, и охваченный местью, грозит отомстить ему и всему негритянскому кварталу. Но в городе кроме белого расизма, существует черный, и создавшаяся ситуация быстро скатывается к насилию.
Качество видео:
Формат видео: AVI
Видео: 640x480 (1.33:1), 23.976 fps, XviD build 73 ~1752 kbps avg, 0.24 bit/pixel
Аудио: 48 kHz, AC3 Dolby Digital, 2/0 (L,R) ch, ~192 kbps

Фрагмент субтитров

581
00:40:04,916 --> 00:40:08,716
Ммм, хорошо.
Просто останься, и поговорим минутку.
582
00:40:12,190 --> 00:40:14,988
Ты и д-р Вартон,
вы ладите, не так ли?
583
00:40:15,126 --> 00:40:17,185
Я не встречал такого человека,
как он, в своей жизни.
584
00:40:17,328 --> 00:40:19,159
Должно быть он хороший человек...
585
00:40:19,297 --> 00:40:21,128
и я уверена,
он много тебе даст...
586
00:40:21,466 --> 00:40:23,331
но ты и сам по себе,
кое-что значишь.
587
00:40:23,434 --> 00:40:26,198
Да, копия д-ра
Джоржа Вашингтона.
588
00:40:26,337 --> 00:40:29,932
- Почему бы и нет?
- Очень много причин, Кора.
589
00:40:30,074 --> 00:40:31,871
Одна из них, что я, еще даже
не хороший специалист.
590
00:40:32,009 --> 00:40:35,638
Д-р Кларк говорит, что твои показатели
лучшие из тех, что были в больнице.
591
00:40:35,747 --> 00:40:39,513
Значит, мамин пирог пирог с кремом
связан с получением мною этой работы...

MediaInfo

Общее
Полное имя : H:\No.Way.Out.1950.dvdrip_[1.46]_[teko]\No.Way.Out.1950.dvdrip_[1.46].avi
Формат : AVI
Формат/Информация : Audio Video Interleave
Размер файла : 1,46 Гбайт
Продолжительность : 1 ч. 46 м.
Общий поток : 1954 Кбит/сек
Программа кодирования : VirtualDubMod 1.5.10.3 | www.virtualdub-fr.org || (build 2550/release)
Библиотека кодирования : VirtualDubMod build 2550/release
Видео
Идентификатор : 0
Формат : MPEG-4 Visual
Профиль формата : Advanced Simple@L5
Параметр BVOP формата : 1
Параметр QPel формата : Нет
Параметр GMC формата : Без точки перехода
Параметр матрицы формата : Выборочная
Идентификатор кодека : XVID
Идентификатор кодека/Подсказка : XviD
Продолжительность : 1 ч. 46 м.
Битрейт : 1753 Кбит/сек
Ширина : 640 пикселей
Высота : 480 пикселей
Соотношение сторон : 4:3
Частота кадров : 23,976 кадра/сек
Цветовое пространство : YUV
Субдискретизация насыщенности : 4:2:0
Битовая глубина : 8 бит
Тип развёртки : Прогрессивная
Метод сжатия : С потерями
Бит/(Пиксели*Кадры) : 0.238
Размер потока : 1,31 Гбайт (90%)
Библиотека кодирования : XviD 73
Аудио
Идентификатор : 1
Формат : AC-3
Формат/Информация : Audio Coding 3
Расширение режима : CM (complete main)
Параметр Endianness формата : Big
Идентификатор кодека : 2000
Продолжительность : 1 ч. 46 м.
Вид битрейта : Постоянный
Битрейт : 192 Кбит/сек
Каналы : 2 канала
Расположение каналов : Front: L R
Частота : 48,0 КГц
Битовая глубина : 16 бит
Метод сжатия : С потерями
Размер потока : 146 Мбайт (10%)
Выравнивание : Разделение по промежуткам
Продолжительность промежутка : 42 мс. (1,00 видеокадр)
Время предзагрузки промежутка : 500 мс.
Релиз группы:
-
-

To download the content you need:
1. Download and install torrent client [for Windows] or for mobile system
2. Click on [Download]
Attention.
If the test YOU are NOT a ROBOT - does not work, then You are using an outdated browser.
Install the current browser and click on [Download]

Do not work with Yandex browser. Uploading files to them is erroneous.
Security: torrent client is allowed by Kaspersky.

[en.asmlocator.ru].t3784.torrent 
Torrent: Registered [ 2015-11-30 05:45 ] · 5B7E19AAF100754CEF9C509965E15EA1CDF25456

Download .torrent

Download

15 KB

Status: checked
Completed: 0 times
Size: 1.46 GB
terms.php
[Profile] [PM]
Display posts:    
Reply to topic

Current time is: 10-Jul 13:34

All times are UTC ± 0



You cannot post new topics in this forum
You cannot reply to topics in this forum
You cannot edit your posts in this forum
You cannot delete your posts in this forum
You cannot vote in polls in this forum
You cannot attach files in this forum
You can download files in this forum
Верим фактам, а не вранью Путина! Факт, что Правительство ведёт Россию к истреблению.
Так как численность населения падает, даже не смотря на приток эмигрантов!
Русская нация вымирает и вырождается, смешиваясь с эмигрантами!
Факт, что военных и граждан предприятий заставляют голосовать за партию Единая Россия и Путина
ПОД СТРАХОМ УВОЛЬНЕНИЯ!
Нам не нужно Правительство, блокирующее личную жизнь, интернет, нарушающее сохранность данных.
Все эти действия финансируются за счёт народа!