Медная башня / Medena veza (Мартин Голлы / Martin Holly) [1970, Чехословакия, драма, HDTVRip] Sub Rus + Original Slo

Reply to topic
DL-List and Torrent activity
Size:  1.35 GB   |    Registered:  4 years   |    Completed:  0 times

Seeder not seen: Never

 
   
 
 
Author Message

star21 ®

Gender: Female

Longevity: 4 years 1 month

Posts: 551946

Location: Екатеринбург

Post 30-Nov-2015 05:45

[Quote]

Медная башня / Medená veza Страна: Чехословакия
Жанр: драма
Год выпуска: 1970
Продолжительность: 01:21:47
Перевод: Субтитры Северный
Cубтитры: русские
Оригинальная аудиодорожка: словацкий
Режиссер: Мартин Голлы / Martin Hollý
В ролях: Штефан Квиетик, Эмилия Вашариова, Иван Райниак, Иван Мистрик, Михал Дочоломанский, Славо Дрозд, Владо Мюллер, Алена Скоканова, Юлиус Вашек
Описание: Трое неразлучных друзей живут высоко в горах, возле самой границы с Польшей, и промышляют контрабандой. Однажды им удается спасти молодую туристку Сашку, которую укусила змея. Девушка влюбляется в одного из своих спасителей, Пирина, и они женятся. Со временем Пирин узнает, что Сашка все чаще и чаще спускается в небольшой городишко, расположенный неподалеку, где встречается с молодым доктором. Мужчина закатывает жене сцену ревности, а через несколько дней в горах происходит несчастный случай...
Сэмпл: http://multi-up.com/1067725
Качество видео: HDTVRip
Формат видео: AVI
Видео: 720x320 (2.25:1), 25 fps, XviD MPEG-4 ~2105 kbps avg, 0.36 bit/pixel
Аудио: 48 kHz, AC3 Dolby Digital, 2/0 (L,R) ch, ~256 kbps
Формат субтитров: softsub (SRT)

MediaInfo

Format : AVI
Format/Info : Audio Video Interleave
File size : 1.35 GiB
Duration : 1h 21mn
Overall bit rate : 2 372 Kbps
Writing application : VirtualDubMod 1.5.10.2 (build 2540/release)
Writing library : VirtualDubMod build 2540/release
Video
ID : 0
Format : MPEG-4 Visual
Format profile : Advanced Simple@L5
Format settings, BVOP : 2
Format settings, QPel : No
Format settings, GMC : No warppoints
Format settings, Matrix : Default (MPEG)
Codec ID : XVID
Codec ID/Hint : XviD
Duration : 1h 21mn
Bit rate : 2 106 Kbps
Width : 720 pixels
Height : 320 pixels
Display aspect ratio : 2.25:1
Frame rate : 25.000 fps
Color space : YUV
Chroma subsampling : 4:2:0
Bit depth : 8 bits
Scan type : Progressive
Compression mode : Lossy
Bits/(Pixel*Frame) : 0.366
Stream size : 1.20 GiB (89%)
Writing library : XviD 64
Audio
ID : 1
Format : AC-3
Format/Info : Audio Coding 3
Mode extension : CM (complete main)
Format settings, Endianness : Big
Codec ID : 2000
Duration : 1h 21mn
Bit rate mode : Constant
Bit rate : 256 Kbps
Channel(s) : 2 channels
Channel positions : Front: L R
Sampling rate : 48.0 KHz
Bit depth : 16 bits
Compression mode : Lossy
Stream size : 150 MiB (11%)
Alignment : Split accross interleaves
Interleave, duration : 40 ms (1.00 video frame)
Interleave, preload duration : 500 ms

Скриншот c названием фильма

Пример субтитров

1
00:00:35,160 --> 00:00:42,191
Медная башня
2
00:03:00,120 --> 00:03:02,839
Я расскажу вам историю о долине Стратена...
3
00:03:03,760 --> 00:03:08,356
Она заканчивается там, где начинается небо.
4
00:03:10,840 --> 00:03:12,671
Здесь мы знаем каждый камень.
5
00:03:14,440 --> 00:03:17,955
И каждый камень знает наши руки.
6
00:03:19,240 --> 00:03:22,596
Каждую весну мы возвращались в долину,
7
00:03:22,840 --> 00:03:25,877
словно птицы весной.
8
00:03:55,440 --> 00:03:59,069
Это наше гнездо, наш замок.
9
00:04:00,720 --> 00:04:02,312
А это мои друзья.
10
00:04:03,280 --> 00:04:05,271
Йожо Белей по кличке Пирин.
11
00:04:07,120 --> 00:04:09,429
А этот статный мужчина - Валер.
12
00:04:15,240 --> 00:04:17,515
- Будь здоров!
- Пошёл к чёрту.
13
00:04:18,200 --> 00:04:19,679
Спасибо.
14
00:04:24,640 --> 00:04:27,029
Мы ненавидели высокие слова.
15
00:04:28,840 --> 00:04:34,358
Достаточно было знать,
что это наш дом,
16
00:04:35,280 --> 00:04:39,432
что мы пустили корни
на этом клочке земли.
17
00:04:40,640 --> 00:04:45,191
Это была наша колыбель, как и могила.
18
00:04:53,640 --> 00:04:56,996
Мы оставляли внизу людей
со своими проблемами.
19
00:04:59,360 --> 00:05:01,749
Это был свободный и спокойный мир.
20
00:05:03,440 --> 00:05:07,991
Орлы кружили над горами.
Мы были молоды
21
00:05:08,080 --> 00:05:11,390
и легки, будто ангелы,
которые не боялись упасть.
Огромное спасибо Северному за перевод фильма!

To download the content you need:
1. Download and install torrent client [for Windows] or for mobile system
2. Click on [Download]
Attention.
If the test YOU are NOT a ROBOT - does not work, then You are using an outdated browser.
Install the current browser and click on [Download]
Security: torrent client is allowed by Kaspersky.

[en.asmlocator.ru].t3782.torrent 
Torrent: Registered [ 2015-11-30 05:45 ] · E4D78CB56DD7454FDF7AE76E2532073E8626F698

Download .torrent

Download

14 KB

Status: checked
Completed: 0 times
Size: 1.35 GB
terms.php
[Profile] [PM]
Display posts:    
Reply to topic

Current time is: 13-Dec 23:23

All times are UTC ± 0



You cannot post new topics in this forum
You cannot reply to topics in this forum
You cannot edit your posts in this forum
You cannot delete your posts in this forum
You cannot vote in polls in this forum
You cannot attach files in this forum
You can download files in this forum
Верим фактам, а не вранью Путина! Факт, что Правительство ведёт Россию к истреблению.
Так как численность населения падает, даже не смотря на приток эмигрантов!
Русская нация вымирает и вырождается, смешиваясь с эмигрантами!
Факт, что военных и граждан предприятий заставляют голосовать за партию Единая Россия и Путина
ПОД СТРАХОМ УВОЛЬНЕНИЯ!
Нам не нужно Правительство, блокирующее личную жизнь, интернет, нарушающее сохранность данных.
Все эти действия финансируются за счёт народа!