Мастер и Маргарита / Il Maestro e Margherita (Александр Петрович / Aleksandar Petrovic) [1972, Италия, Югославия, драма, мистика, BDRip] VO

Reply to topic
DL-List and Torrent activity
Size:  1.45 GB   |    Registered:  4 years 4 months   |    Completed:  0 times

Seeder not seen: 1 year 6 months

 
   
 
 
Author Message

star21 ®

Gender: Female

Longevity: 4 years 4 months

Posts: 551945

Location: Екатеринбург

Post 30-Nov-2015 05:45

[Quote]

Мастер и Маргарита / Il Maestro e Margherita
Страна: Италия, Югославия
Жанр: драма, мистика
Год выпуска: 1972
Продолжительность: 01:37:36
Перевод: Одноголосый закадровый
Cубтитры: нет

Режиссер: Александр Петрович / Aleksandar Petrovic
В ролях: Уго Тоньяцци, Мимзи Фармер, Ален Кюни, Велимир «Бата» Живоинович, Павле Вуисич, Фабиян Совагович, Люба Тадич, Ташко Начич, Данило Бата Стойкович, Фахро Конджходжич
Описание: В советской Москве 20-х годов — месте где никто не верит ни в Бога, ни в Дьявола, драматург Николай Афанасьевич Максудов пишет пьесу «Понтий Пилат». В своем произведении Максудов описал своё видение библейских событий, и о том, в чем заключался конфликт между Пилатом и Иешуа. Такое смелое произведение быстро не понравилось критикам — Латунскому, Ариману и Лавровичу. Отказался поставить пьесу в своем театре и директор Римский. Единственная, кто смогла понять пьесу Николая — его возлюбленная Маргарита, оценившая гений Мастера. Меж тем таинственный иностранец Воланд, представляющийся профессором чёрной магии, со своими инфернальными подручными Коровьевым и Азазелло объявляется в Москве и начинает жестоко наказывать всех причастных к гонению Мастера и его ссылке в сумасшедший дом...
Качество видео:
Формат видео: AVI
Видео: 720x384 (1.88:1), 24 fps, XviD build 73 ~1931 kbps avg, 0.29 bit/pixel
Аудио: 48 kHz, AC3 Dolby Digital, 2/0 (L,R) ch, ~192 kbps

MediaInfo

Общее
Полное имя : H:\Il.Maestro.e.Margherita.1972.bdrip_[1.46]_[teko].avi
Формат : AVI
Формат/Информация : Audio Video Interleave
Размер файла : 1,45 Гбайт
Продолжительность : 1 ч. 37 м.
Общий поток : 2133 Кбит/сек
Программа кодирования : VirtualDubMod 1.5.10.3 | www.virtualdub-fr.org || (build 2550/release)
Библиотека кодирования : VirtualDubMod build 2550/release
Видео
Идентификатор : 0
Формат : MPEG-4 Visual
Профиль формата : Advanced Simple@L5
Параметр BVOP формата : 1
Параметр QPel формата : Нет
Параметр GMC формата : Без точки перехода
Параметр матрицы формата : Выборочная
Идентификатор кодека : XVID
Идентификатор кодека/Подсказка : XviD
Продолжительность : 1 ч. 37 м.
Битрейт : 1931 Кбит/сек
Ширина : 720 пикселей
Высота : 384 пикселя
Соотношение сторон : 1,85:1
Частота кадров : 24,000 кадра/сек
Цветовое пространство : YUV
Субдискретизация насыщенности : 4:2:0
Битовая глубина : 8 бит
Тип развёртки : Прогрессивная
Метод сжатия : С потерями
Бит/(Пиксели*Кадры) : 0.291
Размер потока : 1,32 Гбайт (91%)
Библиотека кодирования : XviD 73
Аудио
Идентификатор : 1
Формат : AC-3
Формат/Информация : Audio Coding 3
Расширение режима : CM (complete main)
Параметр Endianness формата : Big
Идентификатор кодека : 2000
Продолжительность : 1 ч. 37 м.
Вид битрейта : Постоянный
Битрейт : 192 Кбит/сек
Каналы : 2 канала
Расположение каналов : Front: L R
Частота : 48,0 КГц
Битовая глубина : 16 бит
Метод сжатия : С потерями
Размер потока : 134 Мбайт (9%)
Выравнивание : Разделение по промежуткам
Продолжительность промежутка : 42 мс. (1,00 видеокадр)
Время предзагрузки промежутка : 500 мс.
Релиз группы:
-
-

To download the content you need:
1. Download and install torrent client [for Windows] or for mobile system
2. Click on [Download]
Attention.
If the test YOU are NOT a ROBOT - does not work, then You are using an outdated browser.
Install the current browser and click on [Download]

Do not work with Yandex browser. Uploading files to them is erroneous.
Security: torrent client is allowed by Kaspersky.

[en.asmlocator.ru].t3781.torrent 
Torrent: Registered [ 2015-11-30 05:45 ] · 98D51BA081A6C7745C1201A328F4F6ED53E2CB7E

Download .torrent

Download

15 KB

Status: checked
Completed: 0 times
Size: 1.45 GB
terms.php
[Profile] [PM]
Display posts:    
Reply to topic

Current time is: 03-Apr 10:45

All times are UTC ± 0



You cannot post new topics in this forum
You cannot reply to topics in this forum
You cannot edit your posts in this forum
You cannot delete your posts in this forum
You cannot vote in polls in this forum
You cannot attach files in this forum
You can download files in this forum
Верим фактам, а не вранью Путина! Факт, что Правительство ведёт Россию к истреблению.
Так как численность населения падает, даже не смотря на приток эмигрантов!
Русская нация вымирает и вырождается, смешиваясь с эмигрантами!
Факт, что военных и граждан предприятий заставляют голосовать за партию Единая Россия и Путина
ПОД СТРАХОМ УВОЛЬНЕНИЯ!
Нам не нужно Правительство, блокирующее личную жизнь, интернет, нарушающее сохранность данных.
Все эти действия финансируются за счёт народа!