Лев зимой / The Lion in Winter (Энтони Харви / Anthony Harvey) [1968, Великобритания, драма, исторический, BDRip] Dub + MVO + AVO (Карцев) + Sub Rus, Eng + Original Eng

Reply to topic
DL-List and Torrent activity
Size:  2.37 GB   |    Registered:  4 years   |    Completed:  0 times

Seeder not seen: Never

 
   
 
 
Author Message

star21 ®

Gender: Female

Longevity: 4 years 1 month

Posts: 551946

Location: Екатеринбург

Post 30-Nov-2015 05:45

[Quote]

Лев зимой / The Lion in Winter
Страна: Великобритания
Жанр: драма, исторический
Год выпуска: 1968
Продолжительность: 02:09:11
Перевод: Профессиональный (дублированный) - Советский дубляж
Перевод: Профессиональный (многоголосый закадровый)
Перевод: Авторский (одноголосый закадровый) - Пётр Карцев
Cубтитры: русские, английские
Оригинальная аудиодорожка: английский

Режиссер: Энтони Харви / Anthony Harvey
В ролях: Питер О'Тул, Кэтрин Хепберн, Энтони Хопкинс, Джон Касл, Найджел Терри, Тимоти Далтон, Джейн Мерроу, Найджел Сток, Кеннет Ивс
Описание: Экранизация одноименной пьесы Джеймса Голдмена. 1183 год. Во время предстоящих Рождественских празднеств король Англии Генрих II, чья жизнь уже клонится к закату, должен назвать имя наследника трона. На это торжественное событие прибывают жена Генриха II Элеонора Аквитанская, которая провела десять лет в тюрьме за участие в заговоре против мужа, любовница короля, тщеславная принцесса Алаис, ее коварный брат, король Франции Филипп, и трое сыновей Генриха II - Ричард Львиное Сердце, Джеффри и Джон. Все члены семьи люто ненавидят друг друга. Их объединяет лишь одно - непомерная жажда власти и готовность пойти на любое предательство ради обладания ею. И у всей королевской семьи есть достойный пример для подражания - сам жестокий и властолюбивый Генрих II...
Качество видео: BDRip [The.Lion.in.Winter.1968.Blu-rayRemux.AVC.mkv]
Формат видео: AVI
Видео: 720x304 (2.37:1), 25 fps, XviD build 73 ~1836 kbps avg, 0.34 bit/pixel
Аудио: 48 kHz, AC3 Dolby Digital, 2/0 (L,R) ch, ~192 kbps - дубляж
Аудио: 48 kHz, AC3 Dolby Digital, 2/0 (L,R) ch, ~192 kbps - многоголосый
Аудио: 48 kHz, AC3 Dolby Digital, 2/0 (L,R) ch, ~192 kbps - авторский
Аудио: 48 kHz, AC3 Dolby Digital, 2/0 (L,R) ch, ~192 kbps - оригинал (отдельным файлом)

MediaInfo

Общее
Полное имя : H:\The.Lion.in.Winter.1968.bdrip_[2.18]_[teko]\The.Lion.in.Winter.1968.bdrip_[2.18].avi
Формат : AVI
Формат/Информация : Audio Video Interleave
Профиль формата : OpenDML
Размер файла : 2,19 Гбайт
Продолжительность : 2 ч. 9 м.
Общий поток : 2431 Кбит/сек
Программа кодирования : VirtualDubMod 1.5.10.3 | www.virtualdub-fr.org || (build 2550/release)
Библиотека кодирования : VirtualDubMod build 2550/release
Видео
Идентификатор : 0
Формат : MPEG-4 Visual
Профиль формата : Advanced Simple@L5
Параметр BVOP формата : 1
Параметр QPel формата : Нет
Параметр GMC формата : Без точки перехода
Параметр матрицы формата : Выборочная
Идентификатор кодека : XVID
Идентификатор кодека/Подсказка : XviD
Продолжительность : 2 ч. 9 м.
Битрейт : 1831 Кбит/сек
Ширина : 720 пикселей
Высота : 304 пикселя
Соотношение сторон : 2,35:1
Частота кадров : 25,000 кадров/сек
Цветовое пространство : YUV
Субдискретизация насыщенности : 4:2:0
Битовая глубина : 8 бит
Тип развёртки : Прогрессивная
Метод сжатия : С потерями
Бит/(Пиксели*Кадры) : 0.335
Размер потока : 1,65 Гбайт (75%)
Библиотека кодирования : XviD 73
Аудио #1
Идентификатор : 1
Формат : AC-3
Формат/Информация : Audio Coding 3
Расширение режима : CM (complete main)
Параметр Endianness формата : Big
Идентификатор кодека : 2000
Продолжительность : 2 ч. 9 м.
Вид битрейта : Постоянный
Битрейт : 192 Кбит/сек
Каналы : 2 канала
Расположение каналов : Front: L R
Частота : 48,0 КГц
Битовая глубина : 16 бит
Метод сжатия : С потерями
Размер потока : 177 Мбайт (8%)
Выравнивание : Разделение по промежуткам
Продолжительность промежутка : 40 мс. (1,00 видеокадр)
Время предзагрузки промежутка : 500 мс.
Аудио #2
Идентификатор : 2
Формат : AC-3
Формат/Информация : Audio Coding 3
Расширение режима : CM (complete main)
Параметр Endianness формата : Big
Идентификатор кодека : 2000
Продолжительность : 2 ч. 9 м.
Вид битрейта : Постоянный
Битрейт : 192 Кбит/сек
Каналы : 2 канала
Расположение каналов : Front: L R
Частота : 48,0 КГц
Битовая глубина : 16 бит
Метод сжатия : С потерями
Размер потока : 177 Мбайт (8%)
Выравнивание : Разделение по промежуткам
Продолжительность промежутка : 40 мс. (1,00 видеокадр)
Время предзагрузки промежутка : 500 мс.
Аудио #3
Идентификатор : 3
Формат : AC-3
Формат/Информация : Audio Coding 3
Расширение режима : CM (complete main)
Параметр Endianness формата : Big
Идентификатор кодека : 2000
Продолжительность : 2 ч. 9 м.
Вид битрейта : Постоянный
Битрейт : 192 Кбит/сек
Каналы : 2 канала
Расположение каналов : Front: L R
Частота : 48,0 КГц
Битовая глубина : 16 бит
Метод сжатия : С потерями
Размер потока : 177 Мбайт (8%)
Выравнивание : Разделение по промежуткам
Продолжительность промежутка : 40 мс. (1,00 видеокадр)
Время предзагрузки промежутка : 500 мс.
Релиз группы:
-
-

To download the content you need:
1. Download and install torrent client [for Windows] or for mobile system
2. Click on [Download]
Attention.
If the test YOU are NOT a ROBOT - does not work, then You are using an outdated browser.
Install the current browser and click on [Download]
Security: torrent client is allowed by Kaspersky.

[en.asmlocator.ru].t3780.torrent 
Torrent: Registered [ 2015-11-30 05:45 ] · B969070496DFB969A6E022D903B91501CF46C9BF

Download .torrent

Download

13 KB

Status: checked
Completed: 0 times
Size: 2.37 GB
terms.php
[Profile] [PM]
Display posts:    
Reply to topic

Current time is: 05-Dec 15:26

All times are UTC ± 0



You cannot post new topics in this forum
You cannot reply to topics in this forum
You cannot edit your posts in this forum
You cannot delete your posts in this forum
You cannot vote in polls in this forum
You cannot attach files in this forum
You can download files in this forum
Верим фактам, а не вранью Путина! Факт, что Правительство ведёт Россию к истреблению.
Так как численность населения падает, даже не смотря на приток эмигрантов!
Русская нация вымирает и вырождается, смешиваясь с эмигрантами!
Факт, что военных и граждан предприятий заставляют голосовать за партию Единая Россия и Путина
ПОД СТРАХОМ УВОЛЬНЕНИЯ!
Нам не нужно Правительство, блокирующее личную жизнь, интернет, нарушающее сохранность данных.
Все эти действия финансируются за счёт народа!