Карамболь / Karambol (Любомир Шарланджиев / Lyubomir Sharlandzhiev) [1966, Болгария, Драма, TVRip] Sub Rus

Reply to topic
DL-List and Torrent activity
Size:  700 MB   |    Registered:  4 years 7 months   |    Completed:  0 times

Seeder not seen: 8 months 23 days

 
   
 
 
Author Message

star21 ®

Gender: Female

Longevity: 4 years 8 months

Posts: 551945

Location: Екатеринбург

Post 30-Nov-2015 05:45

[Quote]

Карамболь / Karambol
Страна: Болгария
Жанр: Драма
Год выпуска: 1966
Продолжительность: 01:20:00
Перевод: Субтитры
Cубтитры: русские
Оригинальная аудиодорожка: Болгарский
Режиссер: Любомир Шарланджиев / Lyubomir Sharlandzhiev
В ролях:
Невена Коканова, Анани Янашев, Евстати Стратев, Елена Райнова, Асен Миланов, Климент Денчев, Васил Вачев, Ани Бакалова, Стоян Гыдев, Мария Тролева
Описание:
По роману Атанаса Ценева "Замок белой розы"
В одном приморском городе приятели, Райчо и Наско, снимают квартиру - "Замок белой розы", так они ее между собой называют. Знакомятся с оперной певицей Анной, к которой оба проявляют интерес. Но у Анны есть и третий поклонник - режиссер спектакля, в котором она играет. Отношения между всеми героями фильма усложняются, жизненная ситуация напоминает ситуацию в бильярде - карамболь.
Доп. информация:
рип - VPN777; субтитры - VPN777
и благодарности - все ему

За помощь в переводе большая благодарность
kinopoisk.ru
IMDb
Сэмпл: http://multi-up.com/1067743
Качество видео: TVRip
Формат видео: AVI
Видео: XviD, 704 x 432 (16 : 10), 25.000 fps, 1 220 kbps, 0.147 bit/pixel
Аудио: MP3, 44.1 KHz, 2 ch, 96.0 Kbps

MediaInfo

General
Complete name : C:\Karambol (1966)\Karambol (1966).avi
Format : AVI
Format/Info : Audio Video Interleave
File size : 700 MiB
Duration : 1h 20mn
Overall bit rate : 1 220 Kbps
Writing library : VirtualDub build 14328/release
Video
ID : 0
Format : MPEG-4 Visual
Format settings, BVOP : Yes
Format settings, QPel : No
Format settings, GMC : No warppoints
Format settings, Matrix : Default (H.263)
Codec ID : XVID
Codec ID/Hint : XviD
Duration : 1h 20mn
Bit rate : 1 114 Kbps
Width : 704 pixels
Height : 432 pixels
Display aspect ratio : 16:10
Frame rate : 25.000 fps
Color space : YUV
Chroma subsampling : 4:2:0
Bit depth : 8 bits
Scan type : Progressive
Compression mode : Lossy
Bits/(Pixel*Frame) : 0.147
Stream size : 639 MiB (91%)
Audio
ID : 1
Format : MPEG Audio
Format version : Version 1
Format profile : Layer 3
Mode : Joint stereo
Mode extension : Intensity Stereo + MS Stereo
Codec ID : 55
Codec ID/Hint : MP3
Duration : 1h 20mn
Bit rate mode : Constant
Bit rate : 96.0 Kbps
Channel(s) : 2 channels
Sampling rate : 44.1 KHz
Compression mode : Lossy
Stream size : 55.0 MiB (8%)
Alignment : Split accross interleaves
Interleave, duration : 40 ms (1.00 video frame)
Interleave, preload duration : 463 ms
General
Complete name : C:\Karambol (1966)\Karambol (1966).rus.srt
Format : SubRip
File size : 72.1 KiB
Text
Format : SubRip
Compression mode : Lossless

Скриншот c названием фильма

Скриншоты

To download the content you need:
1. Download and install torrent client [for Windows] or for mobile system
2. Click on [Download]
Attention.
If the test YOU are NOT a ROBOT - does not work, then You are using an outdated browser.
Install the current browser and click on [Download]

Do not work with Yandex browser. Uploading files to them is erroneous.
Security: torrent client is allowed by Kaspersky.

[en.asmlocator.ru].t3776.torrent 
Torrent: Registered [ 2015-11-30 05:45 ] · 7A1B84954CBDCBA05715B4B69459E6B3C0487E93

Download .torrent

Download

14 KB

Status: checked
Completed: 0 times
Size: 700 MB
terms.php
[Profile] [PM]
Display posts:    
Reply to topic

Current time is: 12-Jul 15:56

All times are UTC ± 0



You cannot post new topics in this forum
You cannot reply to topics in this forum
You cannot edit your posts in this forum
You cannot delete your posts in this forum
You cannot vote in polls in this forum
You cannot attach files in this forum
You can download files in this forum
Верим фактам, а не вранью Путина! Факт, что Правительство ведёт Россию к истреблению.
Так как численность населения падает, даже не смотря на приток эмигрантов!
Русская нация вымирает и вырождается, смешиваясь с эмигрантами!
Факт, что военных и граждан предприятий заставляют голосовать за партию Единая Россия и Путина
ПОД СТРАХОМ УВОЛЬНЕНИЯ!
Нам не нужно Правительство, блокирующее личную жизнь, интернет, нарушающее сохранность данных.
Все эти действия финансируются за счёт народа!