Смятение и ночь / Беспорядок и ночь / Le désordre et la nuit (Жиль Гранжье / Gilles Grangier) [1958, Франция, криминальная драма, BDRip-AVC] MVO + Original Fre + Sub Fre, Eng

Reply to topic
DL-List and Torrent activity
Size:  2.18 GB   |    Registered:  4 years   |    Completed:  0 times

Seeder not seen: 1 year 8 months

 
   
 
 
Author Message

star21 ®

Gender: Female

Longevity: 4 years 1 month

Posts: 551946

Location: Екатеринбург

Post 30-Nov-2015 05:45

[Quote]

Смятение и ночь / Беспорядок и ночь / Le désordre et la nuit- Страна: Франция
Жанр: криминальная драма
Год выпуска: 1958
Продолжительность: 01:34:58
Перевод: Профессиональный (многоголосый закадровый) Студия «Пифагор» т/к Культура
Оригинальная аудиодорожка: французский
Cубтитры: французские, английские-Режиссер: Жиль Гранжье / Gilles Grangier-В ролях:
Жан Габен, Даниель Даррьё, Надя Тиллер, Поль Франкёр, Хэйзел Скотт, Робер Манюэль, Робер Берри, Франсуа Шометт, Луи Дюкрё, Лилиан Робен
Описание:
Инспектор Валуа начинает расследование убийства владельца ночного кабаре. Почти сразу подозрение падает на его подружку, но это слишком очевидно. Поэтому такая версия не устраивает Валуа…-Sample | Kinopoisk-Качество видео: BDRip-AVC / Le Desordre et la nuit ~ 1958 ~ Blu-ray ~ AV, спасибо AnryV
Формат видео: MKV
Видео: x264 (High@L4.1); 880х528; Display aspect ratio: 1.667:1, 23.976 fps, 2899 Kbps
Аудио 1: Русский: AC-3; 16 bits 48 Khz; 2.0ch 192 Kbps; CBR | MVO
Аудио 2: Французский: AC-3; 16 bits 48 Khz; 2.0ch 192 Kbps; CBR | Original
Формат субтитров: softsub (SRT)

MediaInfo


-

x264 log

avs [info]: 880x528p 1:1 @ 24000/1001 fps (cfr)
x264 [info]: using SAR=1/1
x264 [info]: using cpu capabilities: MMX2 SSE2Fast SSSE3 SSE4.2
x264 [info]: profile High, level 4.1
x264 [info]: frame I:736 Avg QP:18.77 size: 61760
x264 [info]: frame P:25561 Avg QP:21.19 size: 28151
x264 [info]: frame B:110341 Avg QP:23.21 size: 11778
x264 [info]: consecutive B-frames: 0.9% 1.6% 4.3% 13.1% 16.8% 41.1% 8.9% 2.4% 3.7% 3.0% 1.9% 0.5% 1.0% 0.8%
x264 [info]: mb I I16..4: 14.9% 60.4% 24.6%
x264 [info]: mb P I16..4: 0.7% 9.4% 1.9% P16..4: 34.1% 38.0% 14.6% 0.0% 0.0% skip: 1.5%
x264 [info]: mb B I16..4: 0.0% 2.0% 0.1% B16..8: 37.0% 18.6% 4.4% direct: 7.6% skip:30.3% L0:45.0% L1:42.0% BI:13.1%
x264 [info]: 8x8 transform intra:82.0% inter:48.3%
x264 [info]: direct mvs spatial:99.2% temporal:0.8%
x264 [info]: coded y,uvDC,uvAC intra: 98.0% 0.0% 0.0% inter: 32.5% 0.0% 0.0%
x264 [info]: i16 v,h,dc,p: 8% 2% 44% 46%
x264 [info]: i8 v,h,dc,ddl,ddr,vr,hd,vl,hu: 12% 7% 15% 9% 12% 12% 11% 11% 11%
x264 [info]: i4 v,h,dc,ddl,ddr,vr,hd,vl,hu: 12% 7% 4% 9% 15% 15% 13% 12% 12%
x264 [info]: i8c dc,h,v,p: 77% 23% 0% 0%
x264 [info]: Weighted P-Frames: Y:4.0% UV:0.0%
x264 [info]: ref P L0: 36.2% 9.4% 19.2% 6.2% 6.6% 4.0% 4.6% 2.0% 2.3% 1.6% 1.9% 1.3% 1.6% 1.1% 1.4% 0.8%
x264 [info]: ref B L0: 61.2% 13.6% 7.1% 4.1% 2.9% 2.6% 2.0% 1.3% 1.1% 1.0% 0.8% 0.8% 0.7% 0.4% 0.2%
x264 [info]: ref B L1: 91.3% 8.7%
x264 [info]: kb/s:2899.27
x264 [total]: encoded 136638 frames, 11.26 fps, 2899.28 kb/s
-General
Unique ID : 207858432722300334957820264551851384715 (0x9C6013F65278AED08171EB03C4865F8B)
Complete name : Беспорядок и ночь.1958.mkv
Format : Matroska
Format version : Version 2
File size : 2.18 GiB
Duration : 1h 34mn
Overall bit rate : 3 285 Kbps
Movie name : «Le désordre et la nuit»
Encoded date : UTC 2015-09-24 11:50:15
Writing application : mkvmerge v5.8.0 ('No Sleep / Pillow') built on Sep 2 2012 15:37:04
Writing library : libebml v1.2.3 + libmatroska v1.3.0
Comment : BDRip-AVC
Originally released : September 21st 2015
Encoded by : george$t®
Video
ID : 1
Format : AVC
Format/Info : Advanced Video Codec
Format profile : High@L4.1
Format settings, CABAC : Yes
Format settings, ReFrames : 16 frames
Codec ID : V_MPEG4/ISO/AVC
Duration : 1h 34mn
Bit rate : 2 899 Kbps
Width : 880 pixels
Height : 528 pixels
Display aspect ratio : 1.667
Frame rate mode : Constant
Frame rate : 23.976 fps
Color space : YUV
Chroma subsampling : 4:2:0
Bit depth : 8 bits
Scan type : Progressive
Bits/(Pixel*Frame) : 0.260
Stream size : 1.88 GiB (86%)
Title : Смятение и ночь / Le désordre et la nuit.1958
Writing library : x264 core 148 r2579kMod 73ae2d1
Encoding settings : cabac=1 / ref=16 / deblock=1:-2:0 / analyse=0x3:0x113 / me=umh / subme=11 / psy=1 / fade_compensate=0.00 / psy_rd=0.80:0.18 / mixed_ref=1 / me_range=32 / chroma_me=1 / trellis=2 / 8x8dct=1 / cqm=0 / deadzone=21,11 / fast_pskip=0 / chroma_qp_offset=-3 / threads=12 / lookahead_threads=3 / sliced_threads=0 / nr=0 / decimate=0 / interlaced=0 / bluray_compat=0 / constrained_intra=0 / fgo=0 / bframes=13 / b_pyramid=2 / b_adapt=2 / b_bias=0 / direct=3 / weightb=1 / open_gop=0 / weightp=2 / keyint=250 / keyint_min=23 / scenecut=40 / intra_refresh=0 / rc_lookahead=40 / rc=2pass / mbtree=0 / bitrate=2899 / ratetol=1.0 / qcomp=0.55 / qpmin=0 / qpmax=69 / qpstep=4 / cplxblur=20.0 / qblur=0.5 / vbv_maxrate=50000 / vbv_bufsize=62500 / nal_hrd=none / filler=0 / ip_ratio=1.30 / pb_ratio=1.30 / aq=3:0.65
Language : French
Default : Yes
Forced : No
Color primaries : BT.709
Transfer characteristics : BT.709
Matrix coefficients : BT.709
Color range : Limited
Audio #1
ID : 2
Format : AC-3
Format/Info : Audio Coding 3
Mode extension : CM (complete main)
Format settings, Endianness : Big
Codec ID : A_AC3
Duration : 1h 34mn
Bit rate mode : Constant
Bit rate : 192 Kbps
Channel(s) : 2 channels
Channel positions : Front: L R
Sampling rate : 48.0 KHz
Bit depth : 16 bits
Compression mode : Lossy
Stream size : 130 MiB (6%)
Title : MVO: AC-3; 16 bit 48 Khz; 2.0ch 192 Kbps; CBR | Студия «Пифагор» т/к Культура
Language : Russian
Default : Yes
Forced : No
Audio #2
ID : 3
Format : AC-3
Format/Info : Audio Coding 3
Mode extension : CM (complete main)
Format settings, Endianness : Big
Codec ID : A_AC3
Duration : 1h 34mn
Bit rate mode : Constant
Bit rate : 192 Kbps
Channel(s) : 2 channels
Channel positions : Front: L R
Sampling rate : 48.0 KHz
Bit depth : 16 bits
Compression mode : Lossy
Stream size : 130 MiB (6%)
Title : Original: AC-3; 16 bit 48 Khz; 2.0ch 192 Kbps; CBR | fre
Language : French
Default : No
Forced : No
Text #1
ID : 4
Format : UTF-8
Codec ID : S_TEXT/UTF8
Codec ID/Info : UTF-8 Plain Text
Title : Субтитры французские, для слабослышащих
Language : French
Default : No
Forced : No
Text #2
ID : 5
Format : UTF-8
Codec ID : S_TEXT/UTF8
Codec ID/Info : UTF-8 Plain Text
Title : Субтитры английские
Language : English
Default : No
Forced : No
Menu
00:00:00.000 : fr:I
00:09:36.284 : fr:II
00:15:12.662 : fr:III
00:25:27.860 : fr:IV
00:34:58.972 : fr:V
00:42:07.400 : fr:VI
00:50:59.807 : fr:VII
00:57:14.640 : fr:VIII
01:01:41.197 : fr:IX
01:07:23.331 : fr:X
01:18:26.452 : fr:XI
01:30:13.575 : fr:XII

To download the content you need:
1. Download and install torrent client [for Windows] or for mobile system
2. Click on [Download]
Attention.
If the test YOU are NOT a ROBOT - does not work, then You are using an outdated browser.
Install the current browser and click on [Download]
Security: torrent client is allowed by Kaspersky.

[en.asmlocator.ru].t3775.torrent 
Torrent: Registered [ 2015-11-30 05:45 ] · C583693C5E84128862CBFC743D0D6076AB27D73C

Download .torrent

Download

11 KB

Status: checked
Completed: 0 times
Size: 2.18 GB
terms.php
[Profile] [PM]
Display posts:    
Reply to topic

Current time is: 14-Dec 00:32

All times are UTC ± 0



You cannot post new topics in this forum
You cannot reply to topics in this forum
You cannot edit your posts in this forum
You cannot delete your posts in this forum
You cannot vote in polls in this forum
You cannot attach files in this forum
You can download files in this forum
Верим фактам, а не вранью Путина! Факт, что Правительство ведёт Россию к истреблению.
Так как численность населения падает, даже не смотря на приток эмигрантов!
Русская нация вымирает и вырождается, смешиваясь с эмигрантами!
Факт, что военных и граждан предприятий заставляют голосовать за партию Единая Россия и Путина
ПОД СТРАХОМ УВОЛЬНЕНИЯ!
Нам не нужно Правительство, блокирующее личную жизнь, интернет, нарушающее сохранность данных.
Все эти действия финансируются за счёт народа!