Револьвер / Revolver (Серджио Соллима / Sergio Sollima) [1973, Италия, Франция, Германия (ФРГ), триллер, драма, криминал, DVDRip] VO (ССК+)

Reply to topic
DL-List and Torrent activity
Size:  745 MB   |    Registered:  4 years   |    Completed:  0 times

Seeder not seen: 1 month 25 days

 
   
 
 
Author Message

star21 ®

Gender: Female

Longevity: 4 years 1 month

Posts: 551946

Location: Екатеринбург

Post 30-Nov-2015 05:45

[Quote]

Револьвер / Revolver
Страна: Италия, Франция, Германия (ФРГ)
Жанр: триллер, драма, криминал
Год выпуска: 1973
Продолжительность: 01:45:07
Перевод: Одноголосый закадровый ССК+
Cубтитры: нет
Режиссер: Серджио Соллима /Sergio Sollima
В ролях: Оливер Рид, Фабио Тести, Паола Питагора, Агостина Белли, Калисто Калисти, Фредерик де Паскуаль, Марк Мазза, Райнхард Коллдехофф, Бернар Жиродо, Питер Берлинг, Дэниэль Беретта, Штеффен Захариас
Описание: Похищена жена заместителя начальника тюрьмы в Милане (Оливер Рид), и в обмен похитители требуют, чтобы он помог бежать из заключения мелкому грабителю (Фабио Тести). Начальнику ничего другого не остается, однако, когда рецедивист оказывается на свободе, он сам берет его в заложники, поняв, что для мафии этот молодой парень чем-то интересен, а для него он является единственной гарантией освобождения жены. Бандиты с остервенением гоняются за удивительной парочкой, при этом выясняется, что рецидивист им нужен только для того, чтобы тут же убить его. Классика итальянского полицейского триллера. Гениальный саундтрек к фильму написал Эннио Морриконе, величайший композитор кинематографа всех времен и народов. Смотреть непременно!
Сэмпл: http://multi-up.com/1068201

Качество видео: DVDRip -
Формат видео: AVI
Видео: 592x320 (1.85:1), 25 fps, XviD, 853 kbps, 0.18 bit/pixel
Аудио: 48 kHz, MPEG Layer 3, 2 ch, 128.00 kbps, VO (ССК+)

MediaInfo

General
Complete name : E:\Раздачи\rutracker.org\Revolver_745_by_max1wq.avi
Format : AVI
Format/Info : Audio Video Interleave
File size : 745 MiB
Duration : 1h 45mn
Overall bit rate : 991 Kbps
Writing application : VirtualDubMod 1.5.10.2 (build 2540/release)
Writing library : VirtualDubMod build 2540/release
Video
ID : 0
Format : MPEG-4 Visual
Format profile : Advanced Simple@L5
Format settings, BVOP : 1
Format settings, QPel : No
Format settings, GMC : No warppoints
Format settings, Matrix : Custom
Codec ID : XVID
Codec ID/Hint : XviD
Duration : 1h 45mn
Bit rate : 854 Kbps
Width : 592 pixels
Height : 320 pixels
Display aspect ratio : 1.85:1
Frame rate : 25.000 fps
Color space : YUV
Chroma subsampling : 4:2:0
Bit depth : 8 bits
Scan type : Progressive
Compression mode : Lossy
Bits/(Pixel*Frame) : 0.180
Stream size : 642 MiB (86%)
Writing library : XviD 73
Audio
ID : 1
Format : MPEG Audio
Format version : Version 1
Format profile : Layer 3
Codec ID : 55
Codec ID/Hint : MP3
Duration : 1h 45mn
Bit rate mode : Constant
Bit rate : 128 Kbps
Channel(s) : 2 channels
Sampling rate : 48.0 KHz
Compression mode : Lossy
Stream size : 96.2 MiB (13%)
Alignment : Aligned on interleaves
Interleave, duration : 40 ms (1.00 video frame)
Interleave, preload duration : 504 ms

Скриншоты



To download the content you need:
1. Download and install torrent client [for Windows] or for mobile system
2. Click on [Download]
Attention.
If the test YOU are NOT a ROBOT - does not work, then You are using an outdated browser.
Install the current browser and click on [Download]
Security: torrent client is allowed by Kaspersky.

[en.asmlocator.ru].t3774.torrent 
Torrent: Registered [ 2015-11-30 05:45 ] · 764D0B2B13303592885FD70756CF3A28197EDE2E

Download .torrent

Download

15 KB

Status: checked
Completed: 0 times
Size: 745 MB
terms.php
[Profile] [PM]
Display posts:    
Reply to topic

Current time is: 14-Dec 01:16

All times are UTC ± 0



You cannot post new topics in this forum
You cannot reply to topics in this forum
You cannot edit your posts in this forum
You cannot delete your posts in this forum
You cannot vote in polls in this forum
You cannot attach files in this forum
You can download files in this forum
Верим фактам, а не вранью Путина! Факт, что Правительство ведёт Россию к истреблению.
Так как численность населения падает, даже не смотря на приток эмигрантов!
Русская нация вымирает и вырождается, смешиваясь с эмигрантами!
Факт, что военных и граждан предприятий заставляют голосовать за партию Единая Россия и Путина
ПОД СТРАХОМ УВОЛЬНЕНИЯ!
Нам не нужно Правительство, блокирующее личную жизнь, интернет, нарушающее сохранность данных.
Все эти действия финансируются за счёт народа!