Частная жизнь Марка Антонио и Клеопатры / La vida intima de Marco Antonio y Cleopatra (Роберто Гавальдон / Roberto Gavaldón) [1947, Мексика, Фентези, комедия, VHSRip] Sub Rus + Original Spa

Reply to topic
DL-List and Torrent activity
Size:  750 MB   |    Registered:  4 years   |    Completed:  0 times

Seeder not seen: Never

 
   
 
 
Author Message

star21 ®

Gender: Female

Longevity: 4 years 1 month

Posts: 551946

Location: Екатеринбург

Post 30-Nov-2015 05:45

[Quote]

Частная жизнь Марка Антонио и Клеопатры / La vida intima de Marco Antonio y Cleopatra
Страна: Мексика
Жанр: Фентези, комедия
Год выпуска: 1947
Продолжительность: 01:18:44
Перевод: Субтитры андрей-д
Cубтитры: русские
Оригинальная аудиодорожка: испанский
Режиссер: Роберто Гавальдон / Roberto Gavaldón
В ролях: Луис Сандрини, Мария Антониета Понс, Виктор Хунчо, Хосе Бавьера, Рафаэль Банкельс, Кончита Карраседо, Карлос Вильяриас, Фернандо Касанова
Описание: Прорицатель использует своего помощника Марка Антонио в качестве медиума, чтобы вызвать дух покойного мужа клиентки. Но, вместо того приходит дух римского генерала. Марк Антонио попадает в Древний Рим. Там, он встречается со своим тёзкой Марком Антонием и царицей Клеопатрой. Начинаются, удивительные события…
Доп. информация: Рип, предоставила larisa547.
Сэмпл: http://multi-up.com/1068086
Качество видео: VHSRip
Формат видео: AVI
Видео: 512x384 (1.33:1), 25 fps, XviD build 46 ~1130 kbps avg, 0.23 bit/pixel
Аудио: 48 kHz, AC3 Dolby Digital, 2/0 (L,R) ch, ~192 kbps
Формат субтитров: softsub (SRT)

MediaInfo

General
Complete name : D:\Desktop\La vida íntima de Marco Antonio y Cleopatra\La vida íntima de Marco Antonio y Cleopatra.avi
Format : AVI
Format/Info : Audio Video Interleave
File size : 750 MiB
Duration : 1h 18mn
Overall bit rate : 1 332 Kbps
Writing application : VirtualDubMod 1.5.10.3 (build 2550/release)
Writing library : VirtualDubMod build 2550/release
Video
ID : 0
Format : MPEG-4 Visual
Format profile : Advanced Simple@L5
Format settings, BVOP : Yes
Format settings, QPel : No
Format settings, GMC : No warppoints
Format settings, Matrix : Custom
Codec ID : XVID
Codec ID/Hint : XviD
Duration : 1h 18mn
Bit rate : 1 130 Kbps
Width : 512 pixels
Height : 384 pixels
Display aspect ratio : 4:3
Frame rate : 25.000 fps
Color space : YUV
Chroma subsampling : 4:2:0
Bit depth : 8 bits
Scan type : Progressive
Compression mode : Lossy
Bits/(Pixel*Frame) : 0.230
Stream size : 637 MiB (85%)
Writing library : XviD 1.1.2 (UTC 2006-11-01)
Audio
ID : 1
Format : AC-3
Format/Info : Audio Coding 3
Mode extension : CM (complete main)
Format settings, Endianness : Big
Codec ID : 2000
Duration : 1h 18mn
Bit rate mode : Constant
Bit rate : 192 Kbps
Channel count : 2 channels
Channel positions : Front: L R
Sampling rate : 48.0 KHz
Bit depth : 16 bits
Compression mode : Lossy
Stream size : 108 MiB (14%)
Alignment : Split accross interleaves
Interleave, duration : 40 ms (1.00 video frame)
Interleave, preload duration : 500 ms

Скриншот c названием фильма

Скриншоты

Пример субтитров

1
00:00:15,186 --> 00:00:18,825
Частная жизнь Марка Антонио и Клеопатры
2
00:01:14,186 --> 00:01:22,825
Дорогому Марку Антонио!
Со всей моей любовью. Клео.
3
00:01:37,986 --> 00:01:42,615
Марк Антонио! Что, ты делаешь?
- Поправляю, ковёр.
4
00:01:42,946 --> 00:01:47,983
Приятно видеть, что тебя хоть что-то интересует в нашем доме.
Можешь, сделать что-нибудь с этой железкой? Он сгорел.
5
00:01:48,266 --> 00:01:51,202
У меня, нет времени.
Я опаздываю на работу.
6
00:01:51,366 --> 00:01:54,225
Надеюсь, что ты потеряешь свою работу.
Молюсь, чтобы тебя уволили.
7
00:01:54,226 --> 00:01:56,118
Где отвертка?
8
00:01:56,286 --> 00:02:00,252
Ты, что сошла с ума?
Если, меня уволят, то мы - будем голодать
9
00:02:00,253 --> 00:02:03,084
Хочу, чтобы ты нашёл другую работу.
10
00:02:03,746 --> 00:02:06,685
Нет. Лучшей работы, ещё не придумали.
11
00:02:06,686 --> 00:02:09,544
Это - очень лёгкая работа,
которая приносить прибыль.
12
00:02:10,706 --> 00:02:15,836
Только один совет, принёс
мне 15000 баксов прибыли.
13
00:02:15,837 --> 00:02:18,937
Я, даже, не заплатил подоходный налог.
14
00:02:19,106 --> 00:02:23,223
Ты - слишком избалована.
Я сделал тебе и так слишком много ценных подарков.
15
00:02:23,386 --> 00:02:26,854
Недавно, я купил тебе лису на пальто.
16
00:02:28,586 --> 00:02:32,632
Она - выглядит не как лиса, а
больше похожа на паршивую собаку.
17
00:02:32,633 --> 00:02:34,896
Бьюсь, об заклад! Это - был секондхенд.
18
00:02:35,306 --> 00:02:40,218
Ой! Она была новая.
Я купил её у лучшего скорняка в городе.
19
00:02:40,386 --> 00:02:44,025
Тогда, почему через месяц,
она выглядит такой облезлой?
20
00:02:44,186 --> 00:02:48,416
Но, ты проносила её целый месяц.
Лисий мех, не может прослужить дольше.

To download the content you need:
1. Download and install torrent client [for Windows] or for mobile system
2. Click on [Download]
Attention.
If the test YOU are NOT a ROBOT - does not work, then You are using an outdated browser.
Install the current browser and click on [Download]
Security: torrent client is allowed by Kaspersky.

[en.asmlocator.ru].t3773.torrent 
Torrent: Registered [ 2015-11-30 05:45 ] · C1150FB1B334A04BD489D1B8AC42637882113972

Download .torrent

Download

15 KB

Status: checked
Completed: 0 times
Size: 750 MB
terms.php
[Profile] [PM]
Display posts:    
Reply to topic

Current time is: 12-Dec 15:40

All times are UTC ± 0



You cannot post new topics in this forum
You cannot reply to topics in this forum
You cannot edit your posts in this forum
You cannot delete your posts in this forum
You cannot vote in polls in this forum
You cannot attach files in this forum
You can download files in this forum
Верим фактам, а не вранью Путина! Факт, что Правительство ведёт Россию к истреблению.
Так как численность населения падает, даже не смотря на приток эмигрантов!
Русская нация вымирает и вырождается, смешиваясь с эмигрантами!
Факт, что военных и граждан предприятий заставляют голосовать за партию Единая Россия и Путина
ПОД СТРАХОМ УВОЛЬНЕНИЯ!
Нам не нужно Правительство, блокирующее личную жизнь, интернет, нарушающее сохранность данных.
Все эти действия финансируются за счёт народа!