Мать Райли встречает вампира / Мой сын - вампир / Old Mother Riley Meets the Vampire / My Son the Vampire (Джон Джиллинг / John Gilling) [1952, Великобритания, комедия, ужасы, DVDRip] Sub Rus + Original Eng

Reply to topic
DL-List and Torrent activity
Size:  1.25 GB   |    Registered:  4 years   |    Completed:  0 times

Seeder not seen: Never

 
   
 
 
Author Message

star21 ®

Gender: Female

Longevity: 4 years 1 month

Posts: 551946

Location: Екатеринбург

Post 30-Nov-2015 05:45

[Quote]

Мать Райли встречает вампира / Мой сын - вампир / Вампир над Лондоном
Old Mother Riley Meets the Vampire / My Son the Vampire / Vampire Over London
Страна: Великобритания
Жанр: комедия, ужасы
Год выпуска: 1952
Продолжительность: 01:14:10
Перевод: Субтитры Serveladkin
Cубтитры: русские
Оригинальная аудиодорожка: английский
Режиссер: Джон Джиллинг / John Gilling
В ролях: Бела Лугоши, Артур Лакен, Дора Брайан, Филип Ливер, Ричард Уоттис, Грэхэм Моффатт, Мария Мерседес, Родерик Ловелл, Дэвид Херст, Джудит Ферс
Описание: Таинственный человек, известный под именем Вампир, приезжает в Англию, чтобы завершить свои эксперименты в безумной попытке захватить мир. Когда посылка с радиоуправляемым роботом, который был отправлен Вампиру, по ошибке приходит матушке Райли, ей приходится вступить в бой с преступником и разрушить его коварные планы.
Сэмпл: http://multi-up.com/1068448
Качество видео: DVDRip
Формат видео: AVI
Видео: 704x528 (1.33:1), 23.975 fps, XviD MPEG-4 ~2210 kbps avg, 0.25 bit/pixel
Аудио: 48 kHz, AC3 Dolby Digital, 1/0 (C) ch, ~192 kbps
Формат субтитров: softsub (SRT)

MediaInfo

Format : AVI
Format/Info : Audio Video Interleave
File size : 1.25 GiB
Duration : 1h 14mn
Overall bit rate : 2 412 Kbps
Writing library : VirtualDub build 35491/release
Video
ID : 0
Format : MPEG-4 Visual
Format profile : Advanced Simple@L5
Format settings, BVOP : 2
Format settings, QPel : No
Format settings, GMC : No warppoints
Format settings, Matrix : Default (MPEG)
Codec ID : XVID
Codec ID/Hint : XviD
Duration : 1h 14mn
Bit rate : 2 211 Kbps
Width : 704 pixels
Height : 528 pixels
Display aspect ratio : 4:3
Frame rate : 23.976 fps
Color space : YUV
Chroma subsampling : 4:2:0
Bit depth : 8 bits
Scan type : Progressive
Compression mode : Lossy
Bits/(Pixel*Frame) : 0.248
Stream size : 1.15 GiB (92%)
Writing library : XviD 64
Audio
ID : 1
Format : AC-3
Format/Info : Audio Coding 3
Mode extension : CM (complete main)
Format settings, Endianness : Big
Codec ID : 2000
Duration : 1h 14mn
Bit rate mode : Constant
Bit rate : 192 Kbps
Channel(s) : 1 channel
Channel positions : Front: C
Sampling rate : 48.0 KHz
Bit depth : 16 bits
Compression mode : Lossy
Stream size : 102 MiB (8%)
Alignment : Aligned on interleaves
Interleave, duration : 42 ms (1.00 video frame)
Interleave, preload duration : 512 ms

Скриншот c названием фильма

Пример субтитров

2
00:00:21,528 --> 00:00:28,130
МОЙ СЫН ВАМПИР
3
00:01:47,510 --> 00:01:49,320
А вот и ты, дорогая.
Все уже готово.
4
00:01:49,380 --> 00:01:52,580
- А где мой багаж?
- Сейчас принесу. Вернусь через минуту.
5
00:01:56,570 --> 00:01:59,020
- Мисс Джулия Лоретти, если не ошибаюсь?
- Да.
6
00:01:59,050 --> 00:02:02,610
Я из министерства, моя машина
ждет вас, чтобы отвезти в отель.
7
00:02:02,970 --> 00:02:04,230
Сюда, пожалуйста.
8
00:02:04,280 --> 00:02:06,440
Простите меня, но я думала..
9
00:02:06,500 --> 00:02:09,170
Обо всем уже позаботились.
Сюда, пожалуйста.
10
00:02:09,250 --> 00:02:11,600
- Говорите, вы из министерства?
- Да, правильно.
11
00:02:11,730 --> 00:02:14,640
Я и не знала, что в британских
министерствах есть иностранцы.
12
00:02:14,730 --> 00:02:16,730
О, моя дорогая мисс Лоретти..
13
00:02:16,800 --> 00:02:18,730
это же Министерство иностранных дел!
14
00:02:20,020 --> 00:02:21,880
Пожалуйста, садитесь внутрь.
15
00:02:24,660 --> 00:02:26,130
Простите..
16
00:02:26,390 --> 00:02:28,480
Эй, остановите эту машину!
17
00:02:33,060 --> 00:02:37,130
Читайте новости! Вампиры вышли на охоту!
Спасибо, сэр..
18
00:02:37,200 --> 00:02:39,060
Вампиры вышли на охоту!
19
00:02:39,130 --> 00:02:41,610
Экстра! Экстра!
<i>Еще одна девушка пропала.
Неужели это вампиры?</i>
20
00:02:41,670 --> 00:02:43,610
Вампиры вышли на охоту!
21
00:02:46,850 --> 00:02:49,220
- Доброе утро, сэр.
- Садитесь, джентльмены.
22
00:02:49,360 --> 00:02:51,720
Я только что получил телеграмму
от полиции Босника.
Огромное спасибо Serveladkin за перевод фильма и Selena_a за организацию работы!

To download the content you need:
1. Download and install torrent client [for Windows] or for mobile system
2. Click on [Download]
Attention.
If the test YOU are NOT a ROBOT - does not work, then You are using an outdated browser.
Install the current browser and click on [Download]
Security: torrent client is allowed by Kaspersky.

[en.asmlocator.ru].t3772.torrent 
Torrent: Registered [ 2015-11-30 05:45 ] · FBEFC996ABD31E0A39E9847A6AB856F29C13FC2D

Download .torrent

Download

13 KB

Status: checked
Completed: 0 times
Size: 1.25 GB
terms.php
[Profile] [PM]
Display posts:    
Reply to topic

Current time is: 08-Dec 15:40

All times are UTC ± 0



You cannot post new topics in this forum
You cannot reply to topics in this forum
You cannot edit your posts in this forum
You cannot delete your posts in this forum
You cannot vote in polls in this forum
You cannot attach files in this forum
You can download files in this forum
Верим фактам, а не вранью Путина! Факт, что Правительство ведёт Россию к истреблению.
Так как численность населения падает, даже не смотря на приток эмигрантов!
Русская нация вымирает и вырождается, смешиваясь с эмигрантами!
Факт, что военных и граждан предприятий заставляют голосовать за партию Единая Россия и Путина
ПОД СТРАХОМ УВОЛЬНЕНИЯ!
Нам не нужно Правительство, блокирующее личную жизнь, интернет, нарушающее сохранность данных.
Все эти действия финансируются за счёт народа!