Счастье / Le Bonheur (Марсель Л’Эрбье / Marcel L\'Herbier) [1935 г., Франция, драма, BDRip] Original Fre + Sub Rus (Lisok) + Sub Eng, Fre

Reply to topic
DL-List and Torrent activity
Size:  1.45 GB   |    Registered:  4 years   |    Completed:  0 times

Seeder not seen: 1 year 3 months

 
   
 
 
Author Message

star21 ®

Gender: Female

Longevity: 4 years 1 month

Posts: 551946

Location: Екатеринбург

Post 30-Nov-2015 05:45

[Quote]

Счастье / Le Bonheur- Год выпуска: 1935
Страна: Франция
Жанр: драма
Продолжительность: 01:50:49
Перевод: Субтитры
Оригинальная аудиодорожка: Французская
Cубтитры: Русские (Lisok), французские, английские-Режиссер: Марсель Л’Эрбье / Marcel L'Herbier
В ролях: Габи Морле, Шарль Буайе, Полетт Дюбо, Мишель Симон, Жан Тулу, Леон Арвель, Жак Катлен, Мари-Жаклин Шанталь-Описание:
Филипп Лючер, убеждённый анархист, презирает общество, поражённое гангреной ненастоящих кумиров, чьи обогащение и слава держатся только на слепой любви зрителей. Клара Стюарт, капризная и эгоистичная звезда киноэкрана, является для Лючера яркой представительницей этого маскарада, с которым он борется. И вот, когда он собирается совершить непоправимое, он поддаётся чарам жертвы и оказывается неспособным на убийство. Во время судебного процесса Лючера ждёт неожиданное заступничество этой молодой женщины…-За перевод большое спасибо Lisok.
| [imdb]http://www.imdb.com/title/tt0145682[/imdb] | Sample-Качество: BDRip (Le bonheur 1935 1080p Blu-ray AVC DTS-HD MA 2.0, thx johnstev)
Контейнер: AVI
Видео: XviD, 704x512 (1.37:1), 23.976 fps, ~1677 kbps, ~0.19 bit/pixel
Аудио: Французский AC3 2.0, 48 kHz, 192 kbps
Формат субтитров: softsub (SRT)

Скриншоты


MI

General
Complete name : Le.bonheur.1935.BDRip.avi
Format : AVI
Format/Info : Audio Video Interleave
File size : 1.45 GiB
Duration : 1h 50mn
Overall bit rate : 1 878 Kbps
Writing application : VirtualDubMod 1.5.10.2 (build 2540/release)
Copyright : RuTracker
Video
ID : 0
Format : MPEG-4 Visual
Format profile : Advanced Simple@L5
Format settings, BVOP : 1
Format settings, QPel : No
Format settings, GMC : No warppoints
Format settings, Matrix : Custom
Codec ID : XVID
Codec ID/Hint : XviD
Duration : 1h 50mn
Bit rate : 1 677 Kbps
Width : 704 pixels
Height : 512 pixels
Display aspect ratio : 1.375
Frame rate : 23.976 fps
Color space : YUV
Chroma subsampling : 4:2:0
Bit depth : 8 bits
Scan type : Progressive
Compression mode : Lossy
Bits/(Pixel*Frame) : 0.194
Stream size : 1.30 GiB (89%)
Writing library : XviD 65
Audio
ID : 1
Format : AC-3
Format/Info : Audio Coding 3
Mode extension : CM (complete main)
Format settings, Endianness : Big
Codec ID : 2000
Duration : 1h 50mn
Bit rate mode : Constant
Bit rate : 192 Kbps
Channel(s) : 2 channels
Channel positions : Front: L R
Sampling rate : 48.0 KHz
Bit depth : 16 bits
Compression mode : Lossy
Stream size : 152 MiB (10%)
Alignment : Split accross interleaves
Interleave, duration : 42 ms (1.00 video frame)
Interleave, preload duratio : 500 ms

Фрагмент субтитров

1
00:00:14,260 --> 00:00:19,240
Фильм был отреставрирован
компанией «ПАТЭ» в 2013 году.
2
00:00:45,520 --> 00:00:48,660
ПАТЭ-КОНСОРЦИУМ-СИНЕМА
представляет
3
00:00:49,680 --> 00:00:54,760
ГАБИ МОРЛЕ
4
00:00:54,820 --> 00:01:00,559
ШАРЛЬ БУАЙЕ
5
00:01:00,560 --> 00:01:08,860
в фильме «СЧАСТЬЕ»
6
00:01:09,100 --> 00:01:15,920
По роману АНРИ БЕРНШТЕЙНА
7
00:01:16,280 --> 00:01:23,780
Режиссёр: МАРСЕЛЬ Л'ЭРБЬЕ
8
00:02:00,300 --> 00:02:04,000
ПОДЕРЖАННАЯ ШУБА
– 60 000 франков
9
00:02:05,790 --> 00:02:08,720
Алло? «Асоциальный» слушает.
10
00:02:10,180 --> 00:02:16,480
А НАША ШКУРА НА СТОЛЬКО НЕ ПОТЯНЕТ
11
00:02:16,630 --> 00:02:19,340
<i>Да нет! Газета «Асоциальный»!</i>
12
00:02:19,760 --> 00:02:22,780
Подпись: ШАКАЛ
13
00:02:23,930 --> 00:02:25,720
А, уже отправлено?
14
00:02:27,850 --> 00:02:28,940
Потрясающе!
15
00:02:29,100 --> 00:02:31,800
Отправьте в печать немедленно.
Это должно выйти завтра.
16
00:02:31,900 --> 00:02:33,460
Будет убийственно.
17
00:02:37,580 --> 00:02:38,400
Алло?
18
00:02:38,490 --> 00:02:41,540
Рисунок Шакала – на первую полосу,
на три колонки!
19
00:02:41,570 --> 00:02:43,160
Понял, на три колонки.
20
00:02:47,800 --> 00:02:49,500
Вот это да! Ты видел?

To download the content you need:
1. Download and install torrent client [for Windows] or for mobile system
2. Click on [Download]
Attention.
If the test YOU are NOT a ROBOT - does not work, then You are using an outdated browser.
Install the current browser and click on [Download]
Security: torrent client is allowed by Kaspersky.

[en.asmlocator.ru].t3771.torrent 
Torrent: Registered [ 2015-11-30 05:45 ] · 348AAEDAFF52C7582FA96C3ACCC645C3310DF260

Download .torrent

Download

117 KB

Status: checked
Completed: 0 times
Size: 1.45 GB
terms.php
[Profile] [PM]
Display posts:    
Reply to topic

Current time is: 08-Dec 16:12

All times are UTC ± 0



You cannot post new topics in this forum
You cannot reply to topics in this forum
You cannot edit your posts in this forum
You cannot delete your posts in this forum
You cannot vote in polls in this forum
You cannot attach files in this forum
You can download files in this forum
Верим фактам, а не вранью Путина! Факт, что Правительство ведёт Россию к истреблению.
Так как численность населения падает, даже не смотря на приток эмигрантов!
Русская нация вымирает и вырождается, смешиваясь с эмигрантами!
Факт, что военных и граждан предприятий заставляют голосовать за партию Единая Россия и Путина
ПОД СТРАХОМ УВОЛЬНЕНИЯ!
Нам не нужно Правительство, блокирующее личную жизнь, интернет, нарушающее сохранность данных.
Все эти действия финансируются за счёт народа!