И кто только выдал тебе права? / Ma chi t\'ha dato la patente? (Нандо Чичеро / Nando Cicero) [1970, Италия, комедия, DVDRip] MVO (кинокомпания "ТВИН") + Original Ita

Reply to topic
DL-List and Torrent activity
Size:  1.38 GB   |    Registered:  4 years   |    Completed:  0 times

Seeder not seen: 1 year 3 months

 
   
 
 
Author Message

star21 ®

Gender: Female

Longevity: 4 years 1 month

Posts: 551946

Location: Екатеринбург

Post 30-Nov-2015 05:45

[Quote]

И кто только выдал тебе права? / Ma chi t'ha dato la patente? Страна: Италия
Жанр: комедия
Год выпуска: 1970
Продолжительность: 01:25:15
Перевод: Профессиональный (многоголосый закадровый) кинокомпаниия "ТВИН" (Санкт-Петербург, 2012)
Текст читали: Светлана Шейченко, Максим Сергеев, Сергей Куприянов
Cубтитры: нет
Оригинальная аудиодорожка: итальянский
Режиссер: Нандо Чичеро / Nando Cicero
В ролях: Франко Франки, Чиччо Инграссия, Анджела Луче, Вилли Ван дер Вальке, Райка Юри, Ренато Бальдини, Альдо Буфи Ланди, Джино Паньяни, Нино Терцо, Юджин Уолтер, Игнацио Бальзамо, Клара Бинди, Консалво Делль`Арти, Джорджо Долфин, Эдда Ферронао, Игнацио Леоне, Карла Манчини, Марко Пасквини, Лука Спортелли, Мария Тедески, Ренато Терра, Нино Винджелли
Описание: Франко и Чиччо являются хозяевами бедной автошколы "Тринакрия" в Неаполе, где преподают вождение автомобиля для начинающих, но страдают от недостатка клиентов. Денег мало и они вынуждены спать на барже, пришвартованной на реке Тибр. Их преследуют неудачи, воруют их единственный автомобиль, но они покупают старый Мерседес, чьим владельцем был некий Кристофер, умерший от инфаркта во время вождения. Но призрак Кристофера все еще находится в машине, что приводит с невообразимым последствиям ... Девушки, Дебора и Джейн, имеют две цели: получить права и и увеличить срок действия вида на жительство, чтобы остаться в прекрасной стране Италии ...
Доп. информация: Собственный рип.
Сэмпл: http://multi-up.com/1068636
Качество видео: DVDRip
Формат видео: AVI
Видео: XviD, 688x384 (16:9), 25.000 fps, 1921 kbps avg
Аудио: Russian AC3 Dolby Digital, 48 kHz, 2/0 (L,R) ch, 192.00 kbps avg
Аудио 2: Italian AC3 Dolby Digital, 48 kHz, 2/0 (L,R) ch, 192.00 kbps avg

MediaInfo

General
Complete name : F:\Ma chi tha dato la patente\Ma chi tha dato la patente.1970.DVDRip.MVO.avi
Format : AVI
Format/Info : Audio Video Interleave
File size : 1.38 GiB
Duration : 1h 25mn
Overall bit rate : 2 320 Kbps
Writing application : VirtualDubModRus 1.5.10.2 (build 2542/release)
Writing library : VirtualDubMod build 2542/release
Video
ID : 0
Format : MPEG-4 Visual
Format profile : Advanced Simple@L5
Format settings, BVOP : 1
Format settings, QPel : No
Format settings, GMC : No warppoints
Format settings, Matrix : Default (MPEG)
Codec ID : XVID
Codec ID/Hint : XviD
Duration : 1h 25mn
Bit rate : 1 922 Kbps
Width : 688 pixels
Height : 384 pixels
Display aspect ratio : 16:9
Frame rate : 25.000 fps
Color space : YUV
Chroma subsampling : 4:2:0
Bit depth : 8 bits
Scan type : Progressive
Compression mode : Lossy
Bits/(Pixel*Frame) : 0.291
Stream size : 1.14 GiB (83%)
Writing library : XviD 73
Audio #1
ID : 1
Format : AC-3
Format/Info : Audio Coding 3
Mode extension : CM (complete main)
Format settings, Endianness : Big
Codec ID : 2000
Duration : 1h 25mn
Bit rate mode : Constant
Bit rate : 192 Kbps
Channel(s) : 2 channels
Channel positions : Front: L R
Sampling rate : 48.0 KHz
Compression mode : Lossy
Stream size : 117 MiB (8%)
Alignment : Split accross interleaves
Interleave, duration : 40 ms (1.00 video frame)
Interleave, preload duratio : 500 ms
Audio #2
ID : 2
Format : AC-3
Format/Info : Audio Coding 3
Mode extension : CM (complete main)
Format settings, Endianness : Big
Codec ID : 2000
Duration : 1h 25mn
Bit rate mode : Constant
Bit rate : 192 Kbps
Channel(s) : 2 channels
Channel positions : Front: L R
Sampling rate : 48.0 KHz
Compression mode : Lossy
Stream size : 117 MiB (8%)
Alignment : Split accross interleaves
Interleave, duration : 40 ms (1.00 video frame)
Interleave, preload duratio : 500 ms

Скриншоты

To download the content you need:
1. Download and install torrent client [for Windows] or for mobile system
2. Click on [Download]
Attention.
If the test YOU are NOT a ROBOT - does not work, then You are using an outdated browser.
Install the current browser and click on [Download]
Security: torrent client is allowed by Kaspersky.

[en.asmlocator.ru].t3770.torrent 
Torrent: Registered [ 2015-11-30 05:45 ] · 17B0197B244B85E3D7E69425EC19F6BCE71CD0FD

Download .torrent

Download

14 KB

Status: checked
Completed: 0 times
Size: 1.38 GB
terms.php
[Profile] [PM]
Display posts:    
Reply to topic

Current time is: 12-Dec 19:53

All times are UTC ± 0



You cannot post new topics in this forum
You cannot reply to topics in this forum
You cannot edit your posts in this forum
You cannot delete your posts in this forum
You cannot vote in polls in this forum
You cannot attach files in this forum
You can download files in this forum
Верим фактам, а не вранью Путина! Факт, что Правительство ведёт Россию к истреблению.
Так как численность населения падает, даже не смотря на приток эмигрантов!
Русская нация вымирает и вырождается, смешиваясь с эмигрантами!
Факт, что военных и граждан предприятий заставляют голосовать за партию Единая Россия и Путина
ПОД СТРАХОМ УВОЛЬНЕНИЯ!
Нам не нужно Правительство, блокирующее личную жизнь, интернет, нарушающее сохранность данных.
Все эти действия финансируются за счёт народа!